2013Zone For Latest Downloads

 
     
 
Legal Downloads » Music » James Walsh Gypsy Band - James Walsh Gypsy Band (1978) [2013 Japan Mini-CD]
Menu
Home Applications
Games Movies
Music TV Shows
Torrents Graphics

Sitemap

RSS
 
Advanced Search
Last News
Site Info
Top Contributors:
  1    supper88 32766
  2    admin 32693
  3    Whisky 10080
  4    Shark_ 8911
  5    creativelivenew 8706
  6    whathesupa 2799
  7    candymypost 840
  8    hvnteam 629
  9    vuong87 3


Articles:
  This Hour: 0
  Today: 10
  This Month: 62
  All Time: 515562


Torrents:
  Today: 0
  Yesterday: 0
  All Time: 156685


Membership:
  Registered Today :0
  This Hour:0
  This Month:0
  Total:14
  Banned:1

{online}
{inform_torrent}
Friend:
We Recomend
Trend
Trend
XsAd

Search In Site

Music : James Walsh Gypsy Band - James Walsh Gypsy Band (1978) [2013 Japan Mini-CD]
 
http://i48.fastpic.ru/big/2015/0508/76/72f7b040e6ec8a765361bb8f95181576.jpg

James Walsh Gypsy Band - James Walsh Gypsy Band (1978) [2013 Japan Mini-CD]
EAC Rip | FLAC (Tracks) +CUE, LOG | 413 MB | Covers Included
R&B | Label: Vivid Sound [Japan] | Catalog Number: VSCD-2381

"Originally signed to the F&E in 1977 label under the moniker 'Gypsy' the group had a slight name change before being picked up by the mighty arm of RCA who gave them a wider platform courtesy of a full length album in '78. "

Exact Audio Copy V1.0 beta 3 from 29. August 2011

EAC extraction logfile from 5. May 2015, 22:38

James Walsh Gypsy Band / James Walsh Gypsy Band

Used drive : GENERIC CDRCB05 Adapter: 4 ID: 0

Read mode : Secure
Utilize accurate stream : Yes
Defeat audio cache : Yes
Make use of C2 pointers : No

Read offset correction

: 102
Overread into Lead-In and Lead-Out : No
Fill up missing offset samples with silence : Yes
Delete leading and trailing silent blocks : No
Null samples used in CRC calculations : Yes
Used interface
: Native Win32 interface for Win NT & 2000
Gap handling
: Appended to previous track

Used output format : User Defined Encoder
Selected bitrate : 1024 kBit/s
Quality : High
Add ID3 tag : No
Command line compressor : C:\Program Files\FLAC\flac.exe
Additional command line options : -8 -V -T "ARTIST=%artist%" -T "TITLE=%title%" -T "ALBUM=%albumtitle%" -T "DATE=%year%" -T "TRACKNUMBER=%tracknr%" -T "GENRE=%genre%" -T "PERFORMER=%albuminterpret%" -T "COMPOSER=%composer%" %haslyrics%--tag-from-file=LYRICS="%lyricsfile%"%haslyrics% -T "ALBUMARTIST=%albumartist%" -T "DISCNUMBER=%cdnumber%" -T "TOTALDISCS=%totalcds%" -T "TOTALTRACKS=%numtracks%" -T "COMMENT=%comment%" %source% -o %dest%

TOC of the extracted CD Track | Start | Length | Start sector | End sector
1 | 0:00.00 | 3:15.37 | 0 | 14661 2 | 3:15.37 | 3:26.03 | 14662 | 30114 3 | 6:41.40 | 4:02.70 | 30115 | 48334 4 | 10:44.35 | 3:50.50 | 48335 | 65634 5 | 14:35.10 | 4:03.12 | 65635 | 83871 6 | 18:38.22 | 4:11.48 | 83872 | 102744 7 | 22:49.70 | 5:18.27 | 102745 | 126621 8 | 28:08.22 | 1:59.23 | 126622 | 135569 9 | 30:07.45 | 3:37.15 | 135570 | 151859
10 | 33:44.60 | 5:25.30 | 151860 | 176264
11 | 39:10.15 | 3:23.16 | 176265 | 191505

Track 1 Filename H:\0\..................00\post\James Walsh Gypsy Band - James Walsh Gypsy Band (1978) [2013 Japan Mini-CD]\01 - YOU MAKE ME FEEL LIKE LIVIN'.wav Pre-gap length 0:00:02.00 Peak level 99.1 %
Extraction speed 2.3 X
Track quality 100.0 %
Test CRC 71D2D91F
Copy CRC 71D2D91F
Track not present in AccurateRip database
Copy OK

Track 2 Filename H:\0\..................00\post\James Walsh Gypsy Band - James Walsh Gypsy Band (1978) [2013 Japan Mini-CD]\02 - LOVE IS FOR THE BEST IN US.wav Peak level 99.1 %
Extraction speed 2.5 X
Track quality 100.0 %
Test CRC 5A05D6F6
Copy CRC 5A05D6F6
Track not present in AccurateRip database
Copy OK

Track 3 Filename H:\0\..................00\post\James Walsh Gypsy Band - James Walsh Gypsy Band (1978) [2013 Japan Mini-CD]\03 - BRING YOURSELF AROUND.wav Peak level 99.1 %
Extraction speed 2.8 X
Track quality 100.0 %
Test CRC E7AF563F
Copy CRC E7AF563F
Track not present in AccurateRip database
Copy OK

Track 4 Filename H:\0\..................00\post\James Walsh Gypsy Band - James Walsh Gypsy Band (1978) [2013 Japan Mini-CD]\04 - DON'T LOOK BACK.wav Peak level 99.1 %
Extraction speed 2.9 X
Track quality 100.0 %
Test CRC 85F0D9D3
Copy CRC 85F0D9D3
Track not present in AccurateRip database
Copy OK

Track 5 Filename H:\0\..................00\post\James Walsh Gypsy Band - James Walsh Gypsy Band (1978) [2013 Japan Mini-CD]\05 - CUZ IT'S YOU,GIRL.wav Peak level 99.1 %
Extraction speed 3.1 X
Track quality 100.0 %
Test CRC 0159D444
Copy CRC 0159D444
Track not present in AccurateRip database
Copy OK

Track 6 Filename H:\0\..................00\post\James Walsh Gypsy Band - James Walsh Gypsy Band (1978) [2013 Japan Mini-CD]\06 - YOU.wav Peak level 99.1 %
Extraction speed 2.8 X
Track quality 99.9 %
Test CRC B744FA3C
Copy CRC B744FA3C
Track not present in AccurateRip database
Copy OK

Track 7 Filename H:\0\..................00\post\James Walsh Gypsy Band - James Walsh Gypsy Band (1978) [2013 Japan Mini-CD]\07 - GRAY TEARS.wav Peak level 99.1 %
Extraction speed 3.3 X
Track quality 99.9 %
Test CRC BF52EA67
Copy CRC BF52EA67
Track not present in AccurateRip database
Copy OK

Track 8 Filename H:\0\..................00\post\James Walsh Gypsy Band - James Walsh Gypsy Band (1978) [2013 Japan Mini-CD]\08 - MY STAR.wav Peak level 99.1 %
Extraction speed 3.2 X
Track quality 100.0 %
Test CRC F6A45102
Copy CRC F6A45102
Track not present in AccurateRip database
Copy OK

Track 9 Filename H:\0\..................00\post\James Walsh Gypsy Band - James Walsh Gypsy Band (1978) [2013 Japan Mini-CD]\09 - WHOLE LOTTA GIVIN'TO DO.wav Peak level 99.1 %
Extraction speed 3.7 X
Track quality 100.0 %
Test CRC 51036805
Copy CRC 51036805
Track not present in AccurateRip database
Copy OK

Track 10 Filename H:\0\..................00\post\James Walsh Gypsy Band - James Walsh Gypsy Band (1978) [2013 Japan Mini-CD]\10 - LOOKIN'UP I SEE.wav Peak level 99.1 %
Extraction speed 4.1 X
Track quality 100.0 %
Test CRC 694BC44D
Copy CRC 694BC44D
Track not present in AccurateRip database
Copy OK

Track 11 Filename H:\0\..................00\post\James Walsh Gypsy Band - James Walsh Gypsy Band (1978) [2013 Japan Mini-CD]\11 - SOMEDAY.wav Peak level 99.1 %
Extraction speed 3.4 X
Track quality 99.9 %
Test CRC A2ABF407
Copy CRC A2ABF407
Track not present in AccurateRip database
Copy OK

None of the tracks are present in the AccurateRip database

No errors occurred

End of status report

==== Log checksum 7775303BA6C7C11FBEAC48CD2A30D85860655B9FDF48369761441B50C681BEA6 ====

Tracklist:
01. You Make Me Feel Like Livin'
02. Love Is For The Best In Us
03. Bring Yourself Around
04. Don't Look Back
05. Cuz It's You, Girl
06. You
07. Gray Tears
08. My Star
09. Whole Lotta Givin' To Do
10. Lookin' Up I See
11. Someday
DOWNLOAD LINKS:
Buy Premium To Support Me & Get Resumable Support & Max Speed


Links are Interchangeable - No Password - Single Extraction

James Walsh Gypsy Band - James Walsh Gypsy Band (1978) [2013 Japan Mini-CD] Fast Download


XsAd2

 
 
 
Dear visitor, you went to the site as an unregistered user. We encourage you to register or enter the site under your name.
 
   
 
 (Votes #: 0)