2013Zone For Latest Downloads

 
     
 
Legal Downloads » Music » King King - Reaching For The Light (2015)
Menu
Home Applications
Games Movies
Music TV Shows
Torrents Graphics

Sitemap

RSS
 
Advanced Search
Last News
Site Info
Top Contributors:
  1    supper88 32766
  2    admin 32693
  3    Whisky 10080
  4    Shark_ 8911
  5    creativelivenew 8706
  6    whathesupa 2799
  7    candymypost 840
  8    hvnteam 629
  9    vuong87 3


Articles:
  This Hour: 0
  Today: 0
  This Month: 62
  All Time: 515562


Torrents:
  Today: 0
  Yesterday: 0
  All Time: 156685


Membership:
  Registered Today :0
  This Hour:0
  This Month:0
  Total:14
  Banned:1

{online}
{inform_torrent}
Friend:
We Recomend
Trend
Trend
Ad1

Search In Site

Music : King King - Reaching For The Light (2015)
 
http://i47.fastpic.ru/big/2015/0508/c5/a6e8e3f7c8bfe140dc75322fade1e6c5.jpg

King King - Reaching For The Light (2015)
Blues, Rock, Blues Rock | EAC Rip | FLAC, Img+CUE + LOG + Full Scans-400dpi (JPEG) | 44:00 Min | 305,99 Mb
Label: Manhaton Records (EU) | Released: 2015, May, 4

"
The wait is over. There's no denying the buzz surrounding King King's highly anticipated third studio album, Reaching For The Light. At a time when the shuffled playlist holds sway, along comes nine hot tracks that defy you to press skip. The album is set to rubber-stamp King King's status as the boldest creative force in the game, and dashes the hopes of rivals out to take their crown.
"

http://i59.fastpic.ru/big/2015/0508/2c/e50db3823a50513aaf6362f2d9ab822c.jpg

http://i57.fastpic.ru/big/2015/0508/8f/080cb80cf1f7ee0a422f48d7bfa6148f.jpg


Release of this CD: 2015, May, 4 [CD Manhaton Records (EU), Cat.# HATMAN 2038 / UPC: 5038787203821]
© 2015 Manhaton Records
Manufactured in EU

Alan Nimmo: Vocal & Guitars
Bob Fridzema: Hammond Organ & Keyboards
Lindsay Coulson: Bass guitar
Waine Proctor: Drums & Percussion


Tracklist:

01. Hurricane (03:10)
(Nimmo / Coulson / Proctor / Fridzema)
02. You Stopped The Rain (04:12)
(Nimmo / Coulson / Proctor / Fridzema)
03. Waking Up (05:37)
(Nimmo / Coulson / Proctor / Fridzema)
04. Rush Hour (05:17)
(Nimmo / Coulson / Proctor / Fridzema)
05. Crazy (04:35)
(Nimmo / Coulson / Proctor / Fridzema)
06. Lay With Me (04:16)
(Nimmo / Coulson / Proctor / Fridzema)
07. Just A Little Lie (04:17)
(P. Carrack / C. Dore)
08. Take A Look (06:18)
(Nimmo / Coulson / Proctor / Fridzema / Regan)
09. Stranger To Love (06:18)
(Nimmo / Coulson / Proctor / Fridzema)

Exact Audio Copy V0.99 prebeta 5 from 4. May 2009

EAC extraction logfile from 3. May 2015, 16:42

King King / Reaching For The Light

Used drive : ATAPI iHAS122 C Adapter: 1 ID: 1

Read mode : Secure
Utilize accurate stream : Yes
Defeat audio cache : Yes
Make use of C2 pointers : No

Read offset correction

: 6
Overread into Lead-In and Lead-Out : No
Fill up missing offset samples with silence : Yes
Delete leading and trailing silent blocks : No
Null samples used in CRC calculations : Yes
Used interface
: Native Win32 interface for Win NT & 2000

Used output format : Monkey's Audio Lossless Encoder
Selected bitrate : High Lossless Compression
Quality : High
Add ID3 tag : No
Command line compressor : C:\Program Files (x86)\Monkey's Audio\MAC.exe
Additional command line options : -v

TOC of the extracted CD Track | Start | Length | Start sector | End sector
1 | 0:00.00 | 3:09.58 | 0 | 14232 2 | 3:09.58 | 4:11.67 | 14233 | 33124 3 | 7:21.50 | 5:37.25 | 33125 | 58424 4 | 12:59.00 | 5:17.14 | 58425 | 82213 5 | 18:16.14 | 4:34.45 | 82214 | 102808 6 | 22:50.59 | 4:15.56 | 102809 | 121989 7 | 27:06.40 | 4:16.50 | 121990 | 141239 8 | 31:23.15 | 6:18.34 | 141240 | 169623 9 | 37:41.49 | 6:18.36 | 169624 | 198009

Range status and errors

Selected range Filename C:\Users\London\Desktop\King King - Reaching For The Light.wav Peak level 100.0 %
Range quality 100.0 %
Test CRC 6E950823
Copy CRC 6E950823
Copy OK

No errors occurred


AccurateRip summary

Track 1 cannot be verified as accurate (confidence 1) [158C8EFC], AccurateRip returned [6C5A40FB]
Track 2 cannot be verified as accurate (confidence 1) [E3136CE3], AccurateRip returned [EC35296B]
Track 3 cannot be verified as accurate (confidence 1) [52BC6923], AccurateRip returned [4E8607DA]
Track 4 cannot be verified as accurate (confidence 1) [AC848228], AccurateRip returned [D7F4DB0D]
Track 5 cannot be verified as accurate (confidence 1) [1EDD89D0], AccurateRip returned [9F77A65D]
Track 6 cannot be verified as accurate (confidence 1) [4C8D258B], AccurateRip returned 738B021
Track 7 cannot be verified as accurate (confidence 1) [77B54358], AccurateRip returned [F0087B22]
Track 8 cannot be verified as accurate (confidence 1) [5B90C54B], AccurateRip returned [61FFBF32]
Track 9 cannot be verified as accurate (confidence 1) [711CB378], AccurateRip returned [1D6A1AF1]

No tracks could be verified as accurate
You may have a different pressing from the one(s) in the database

End of status report

foobar2000 1.3.7 / Dynamic Range Meter 1.1.1
log date: 2015-05-06 20:44:53

------
Analyzed: King King / Reaching For The Light
------

DR Peak RMS Duration Track
------
DR6 -0.26 dB -7.79 dB 3:10 01-Hurricane
DR7 0.00 dB -8.07 dB 4:12 02-You Stopped The Rain
DR6 -0.03 dB -8.13 dB 5:37 03-Waking Up
DR6 -0.23 dB -8.40 dB 5:17 04-Rush Hour
DR6 -0.20 dB -8.29 dB 4:35 05-Crazy
DR7 0.00 dB -9.79 dB 4:16 06-Lay With Me
DR6 -0.17 dB -7.88 dB 4:17 07-Just A Little Lie
DR7 -0.17 dB -8.62 dB 6:18 08-Take A Look
DR7 0.00 dB -9.85 dB 6:18 09-Stranger To Love
------

Number of tracks: 9
Official DR value: DR7

Samplerate: 44100 Hz
Channels: 2
Bits per sample: 16
Bitrate: 892 kbps
Codec: FLAC
DOWNLOAD LINKS:
Buy Premium To Support Me & Get Resumable Support & Max Speed


Links are Interchangeable - No Password - Single Extraction

King King - Reaching For The Light (2015) Fast Download


Ad2

 
 
 
Dear visitor, you went to the site as an unregistered user. We encourage you to register or enter the site under your name.
 
   
 
 (Votes #: 0)