2013Zone For Latest Downloads

 
     
 
Legal Downloads » Music » Dave Holland Quartet - Extensions (1990) {ECM 1410}
Menu
Home Applications
Games Movies
Music TV Shows
Torrents Graphics

Sitemap

RSS
 
Advanced Search
Last News
Site Info
Top Contributors:
  1    supper88 32766
  2    admin 32725
  3    Whisky 10080
  4    Shark_ 8911
  5    creativelivenew 8706
  6    whathesupa 2799
  7    candymypost 840
  8    hvnteam 629
  9    vuong87 3


Articles:
  This Hour: 0
  Today: 0
  This Month: 0
  All Time: 515494


Torrents:
  Today: 0
  Yesterday: 0
  All Time: 156680


Membership:
  Registered Today :0
  This Hour:0
  This Month:0
  Total:14
  Banned:1

{online}
{inform_torrent}
Friend:
Full Download Scripts
Torrent Download
Trend
Trend

Search In Site

Music : Dave Holland Quartet - Extensions (1990) {ECM 1410}
 
http://i47.fastpic.ru/big/2015/0508/5e/636499e7d82c38500e2470c35a4f6b5e.jpg

Dave Holland Quartet - Extensions (1990) {ECM 1410}
X Lossless Decoder | FLAC tracks | Cue+Log+M3U | Full Scans 300dpi | 351MB + 5% Recovery
MP3 CBR 320 Kbps | 146MB + 5% Recovery
Genre: Fusion, Post-Bop

"For this tight and enjoyable quartet date, bassist Dave Holland spread the composing opportunities around, his sidemen accounting for four of the six pieces. Arguably, none of these musicians ever sounded better, or more adventurous, than when performing in Holland's bands. While the leader himself retreated a good deal from his more routinely avant-garde recordings of the '70s, he appeared unwilling to allow his younger compadres to simply coast, instead evoking probing and thoughtful playing from them. Altoist Steve Coleman derives particular benefit from Holland's supervision, sounding far more fluid and confident than own his own rather more stilted albums."

Track List
01. Nemesis (K. Eubanks) 11:31
02. Processional (D. Holland) 7:16
03. Black Hole (S. Coleman) 10:10
04. The Oracle [D. Holland) 14:32
05. 101° Fahrenheit (Slow Meltdown) (S. Coleman) 4:40
06. Color Of Mind (K. Eubanks) 10:11

musicians
Dave Holland - bass
Steve Coleman - alto saxophone
Kevin Eubanks - guitar
Marvin "Smitty" Smith - drums

Produced by Manfred Eicher

X Lossless Decoder version 20100911 (122.0)

XLD extraction logfile from 2010-09-17 15:03:28 -0400

Dave Holland / Extensions

Used drive : MATSHITA DVD-R UJ-857E (revision ZF1E)

Use cdparanoia mode : YES (CDParanoia III 10.2 engine)
Disable audio cache : OK for the drive with cache less than 2750KB
Make use of C2 pointers : NO
Read offset correction : 102
Max retry count : 100
Gap status : Analyzed, Appended

TOC of the extracted CD
Track | Start | Length | Start sector | End sector
1 | 00:00:33 | 11:35:62 | 33 | 52219 2 | 11:36:20 | 07:21:70 | 52220 | 85364 3 | 18:58:15 | 10:15:25 | 85365 | 131514 4 | 29:13:40 | 14:37:73 | 131515 | 197362 5 | 43:51:38 | 04:56:00 | 197363 | 219562 6 | 48:47:38 | 10:11:40 | 219563 | 265427

List of alternate offset correction values# | Absolute | Relative | Confidence
1 | 1050 | 948 | 12 2 | 1800 | 1698 | 11

All Tracks
Album gain : 0.82 dB
Peak : 0.993988

Track 01
Filename : /Volumes/MADLIB/01 Dave Holland - Nemesis.flac
Pre-gap length : 00:02:33 Track gain : -0.42 dB
Peak : 0.911987
CRC32 hash (test run) : D45D47D3
CRC32 hash : D45D47D3
CRC32 hash (skip zero) : 0E28CA6E
AccurateRip signature : B146B912->Accurately ripped! (confidence 3)
StatisticsRead error : 0Skipped (treated as error) : 0Edge jitter error (maybe fixed) : 0Atom jitter error (maybe fixed) : 0Drift error (maybe fixed) : 0Dropped bytes error (maybe fixed) : 0Duplicated bytes error (maybe fixed) : 0Inconsistency in error sectors : 0

Track 02
Filename : /Volumes/MADLIB/02 Dave Holland - Processional.flac
Pre-gap length : 00:04:35 Track gain : -1.05 dB
Peak : 0.911987
CRC32 hash (test run) : 6ED8E6F0
CRC32 hash : 6ED8E6F0
CRC32 hash (skip zero) : 84213621
AccurateRip signature : 5FA6CC5A->Accurately ripped! (confidence 4)
StatisticsRead error : 0Skipped (treated as error) : 0Edge jitter error (maybe fixed) : 0Atom jitter error (maybe fixed) : 0Drift error (maybe fixed) : 0Dropped bytes error (maybe fixed) : 0Duplicated bytes error (maybe fixed) : 0Inconsistency in error sectors : 0

Track 03
Filename : /Volumes/MADLIB/03 Dave Holland - Black Hole.flac
Pre-gap length : 00:05:45 Track gain : 1.58 dB
Peak : 0.933228
CRC32 hash (test run) : 893A65D8
CRC32 hash : 893A65D8
CRC32 hash (skip zero) : A5EACCE3
AccurateRip signature : 0659FB78->Accurately ripped! (confidence 4)
StatisticsRead error : 0Skipped (treated as error) : 0Edge jitter error (maybe fixed) : 0Atom jitter error (maybe fixed) : 0Drift error (maybe fixed) : 0Dropped bytes error (maybe fixed) : 0Duplicated bytes error (maybe fixed) : 0Inconsistency in error sectors : 0

Track 04
Filename : /Volumes/MADLIB/04 Dave Holland - The Oracle.flac
Pre-gap length : 00:04:67 Track gain : 2.24 dB
Peak : 0.993988
CRC32 hash (test run) : F5EA25A7
CRC32 hash : F5EA25A7
CRC32 hash (skip zero) : 4C879CBB
AccurateRip signature : 1F3C753F->Accurately ripped! (confidence 3)
StatisticsRead error : 0Skipped (treated as error) : 0Edge jitter error (maybe fixed) : 0Atom jitter error (maybe fixed) : 0Drift error (maybe fixed) : 0Dropped bytes error (maybe fixed) : 0Duplicated bytes error (maybe fixed) : 0Inconsistency in error sectors : 0

Track 05
Filename : /Volumes/MADLIB/05 Dave Holland - 101° Fahrenheit (Slow Meltdown).flac
Pre-gap length : 00:05:50 Track gain : 3.91 dB
Peak : 0.720367
CRC32 hash (test run) : 566B502E
CRC32 hash : 566B502E
CRC32 hash (skip zero) : 2CA680D8
AccurateRip signature : 9914A9C7->Accurately ripped! (confidence 4)
StatisticsRead error : 0Skipped (treated as error) : 0Edge jitter error (maybe fixed) : 0Atom jitter error (maybe fixed) : 0Drift error (maybe fixed) : 0Dropped bytes error (maybe fixed) : 0Duplicated bytes error (maybe fixed) : 0Inconsistency in error sectors : 0

Track 06
Filename : /Volumes/MADLIB/06 Dave Holland - Color Of Mind.flac
Pre-gap length : 00:05:55 Track gain : 2.15 dB
Peak : 0.950165
CRC32 hash (test run) : 02EE77DE
CRC32 hash : 02EE77DE
CRC32 hash (skip zero) : BC19687A
AccurateRip signature : B53F16D1->Accurately ripped! (confidence 3)
StatisticsRead error : 0Skipped (treated as error) : 0Edge jitter error (maybe fixed) : 0Atom jitter error (maybe fixed) : 0Drift error (maybe fixed) : 0Dropped bytes error (maybe fixed) : 0Duplicated bytes error (maybe fixed) : 0Inconsistency in error sectors : 0

No errors occurred

End of status report

------
Analyzed: Dave Holland Quartet / Extensions
------

DR Peak RMS Duration Track
------
DR13 -0.80 dB -16.39 dB 11:36 01-Nemesis
DR13 -0.80 dB -16.60 dB 7:22 02-Processional
DR16 -0.60 dB -18.57 dB 10:15 03-Black Hole
DR14 -0.05 dB -19.49 dB 14:38 04-The Oracle
DR14 -2.85 dB -21.01 dB 4:56 05-101 Degree Fahrenheit (Slow Meltdown)
DR15 -0.44 dB -19.45 dB 10:12 06-Color Of Mind
------

Number of tracks: 6
Official DR value: DR14

Samplerate: 44100 Hz
Channels: 2
Bits per sample: 16
Bitrate: 849 kbps
Codec: FLAC

http://i58.fastpic.ru/big/2015/0508/c9/2698316867f007a4698b95b5546034c9.jpg

http://i58.fastpic.ru/big/2015/0508/dd/50de31f384cfb9691acf25fa2e0173dd.jpg

http://i58.fastpic.ru/big/2015/0508/45/0cbaf63ed7ec47eaffa114e493590945.jpg



DOWNLOAD LINKS:
Buy Premium To Support Me & Get Resumable Support & Max Speed


Links are Interchangeable - No Password - Single Extraction

Dave Holland Quartet - Extensions (1990) {ECM 1410} Fast Download



 
 
 
Dear visitor, you went to the site as an unregistered user. We encourage you to register or enter the site under your name.
 
   
 
 (Votes #: 0)