2013Zone For Latest Downloads

 
     
 
Legal Downloads » Music » Ian Gillan Band - Live at the Budokan Volumes I & II (1978)
Menu
Home Applications
Games Movies
Music TV Shows
Torrents Graphics

Sitemap

RSS
 
Advanced Search
Last News
Site Info
Top Contributors:
  1    supper88 32766
  2    admin 32671
  3    Whisky 10080
  4    Shark_ 8911
  5    creativelivenew 8706
  6    whathesupa 2799
  7    candymypost 840
  8    hvnteam 629
  9    vuong87 3


Articles:
  This Hour: 0
  Today: 0
  This Month: 58
  All Time: 515616


Torrents:
  Today: 0
  Yesterday: 0
  All Time: 156702


Membership:
  Registered Today :0
  This Hour:0
  This Month:0
  Total:14
  Banned:1

{online}
{inform_torrent}
Friend:
We Recomend
Trend
Trend
Ad1

Search In Site

Music : Ian Gillan Band - Live at the Budokan Volumes I & II (1978)
 
http://i48.fastpic.ru/big/2015/0511/77/633f16589a659b1f0c71b3cf0ff69c77.jpg

Ian Gillan Band - Live at the Budokan Volumes I & II (1978)
Rock | 2cd | EAC Rip | Flac + Cue + Log | covers
Archive, AIRAC1384/5 | rem: 2007 | 555Mb

Wouldn't you have guessed it?? After returning to a Purple song format in Scarabus, that Ian Gillan and his band would go on to return to live "old glory" moments in the Budokan theatre in Tokyo, where the Japanese crowds are sooooo easy to please and way over-appreciative. Recorded after the band's Scarabus album, I suspect this was probably among the last gig of the IGB well that band with that line-up)
Opening on the excellent title track of the second and best album CAT, the IGB take their time building up, thus almost doubling its length, something they will do for Money Lender (from the same album) as well and to a lesser extent Over The Hill (also from CAT), while . Oddly enough, the band chooses to alternate tracks from CAT and Scarabus and give us three from each, but as you can easily guess, the CAT tracks win easily with their infectious grooves and enthralling solos, compared to the sterile tightness of Scarabus tracks. Of course, what sucks here is that Gillan lives on Purple glory and more or less two thirds of the second album is devoted to Purple tracks, including the obligatory (but atrocious) Woman From Tokyo.
Well although I find this album a bit of a shame, living on a certain past, it does have some moments, particularly when bordering on the jazz-rock passages and the fact that the band was probably better life than in the studio, I could be tempted into saying that this Live at Budokan is all you need from the IGB, but CAT might be worth a second look. ~progarchives

Track listing
cd1:
01. Clear Air Turbulence (12:50)
02. My Baby Loves Me (8:11)
03. Scarabus (5:03)
04. Money Lender (11:14)
05. Twin Exhausted (4:49)
~ (42:08)
cd2:
01. Over The Hill (8:43)
02. Child In Time (10:13)
03. Smoke On The Water (9:51)
04. Mercury High (5:06)
05. Woman From Tokyo (4:51)
~ (38:43)

Personnel
- Ian Gillan / lead vocals
- Colin Towns / keyboards, flutes
- John Gustafson / bass, vocals
- Ray Fenwick / guitars, vocals
- Mark Nauseef / drums, percussion

Exact Audio Copy V0.99 prebeta 5 from 4. May 2009

EAC extraction logfile from 4. November 2010, 12:25

Ian Gillan Band / Live at the Budokan Vol I

Used drive : ASUS DRW-24B1LT Adapter: 2 ID: 1

Read mode : Secure
Utilize accurate stream : Yes
Defeat audio cache : Yes
Make use of C2 pointers : No

Read offset correction

: 6
Overread into Lead-In and Lead-Out : No
Fill up missing offset samples with silence : Yes
Delete leading and trailing silent blocks : No
Null samples used in CRC calculations : Yes
Used interface
: Native Win32 interface for Win NT & 2000

Used output format : User Defined Encoder
Selected bitrate : 128 kBit/s
Quality : High
Add ID3 tag : No
Command line compressor : C:\Program Files\Exact Audio Copy\Flac\flac.exe
Additional command line options : -8 -V %s

TOC of the extracted CD Track | Start | Length | Start sector | End sector
1 | 0:00.00 | 12:50.17 | 0 | 57766 2 | 12:50.17 | 8:11.36 | 57767 | 94627 3 | 21:01.53 | 5:03.19 | 94628 | 117371 4 | 26:04.72 | 11:14.35 | 117372 | 167956 5 | 37:19.32 | 4:48.65 | 167957 | 189621

Range status and errors

Selected range Filename F:\раздачи новые\Ian Gillan Band - Live at the Budokan - 2007 [Japan] (flac)\Vol. I\Ian Gillan Band - Live at the Budokan Vol I.wav Peak level 96.7 %
Range quality 100.0 %
Test CRC 2F0959D6
Copy CRC 2F0959D6
Copy OK

No errors occurred


End of status report

Exact Audio Copy V0.99 prebeta 5 from 4. May 2009

EAC extraction logfile from 4. November 2010, 12:58

Ian Gillan Band / Live At The Budokan Vol II

Used drive : ASUS DRW-24B1LT Adapter: 2 ID: 1

Read mode : Secure
Utilize accurate stream : Yes
Defeat audio cache : Yes
Make use of C2 pointers : No

Read offset correction

: 6
Overread into Lead-In and Lead-Out : No
Fill up missing offset samples with silence : Yes
Delete leading and trailing silent blocks : No
Null samples used in CRC calculations : Yes
Used interface
: Native Win32 interface for Win NT & 2000

Used output format : User Defined Encoder
Selected bitrate : 128 kBit/s
Quality : High
Add ID3 tag : No
Command line compressor : C:\Program Files\Exact Audio Copy\Flac\flac.exe
Additional command line options : -8 -V %s

TOC of the extracted CD Track | Start | Length | Start sector | End sector
1 | 0:00.00 | 8:42.44 | 0 | 39193 2 | 8:42.44 | 10:12.41 | 39194 | 85134 3 | 18:55.10 | 9:50.45 | 85135 | 129429 4 | 28:45.55 | 5:06.18 | 129430 | 152397 5 | 33:51.73 | 4:51.27 | 152398 | 174249

Range status and errors

Selected range Filename F:\раздачи новые\Ian Gillan Band - Live at the Budokan - 2007 [Japan] (flac)\Vol. II\Ian Gillan Band - Live At The Budokan Vol II.wav Peak level 97.0 %
Range quality 100.0 %
Test CRC 3DCB8654
Copy CRC 3DCB8654
Copy OK

No errors occurred


End of status report

[CUETools log; Date: 2015.05.08. 10:54:02; Version: 2.1.4]
[CTDB TOCID: u1VJIaA6p9adIw6n1RTaeSBol_I-] disk not present in database.
[AccurateRip ID: 00099292-002b6ed8-3909e005] found.
Track [ CRC | V2 ] Status
01 [11afb9ad|9d0af016] (1+0/1) Accurately ripped
02 [3b22d46f|5b122b13] (1+0/1) Accurately ripped
03 ce4db11|a2b813d2 (1+0/1) Accurately ripped
04 [0645f046|5082a760] (1+0/1) Accurately ripped
05 [1d9bf592|804c7e9c] (1+0/1) Accurately ripped

Track Peak [ CRC32 ] [W/O NULL] [ LOG ]
-- 96,7 [2F0959D6] 66452B7 CRC32
01 96,7 [C3BBA6E7] [60198CC4]
02 96,6 [0CD41213] [2ECBB7C6]
03 96,6 [16201F67] 599DBD7
04 96,6 [12291A28] [0790EA81]
05 96,7 [9B93F8A9] [8DB321DC]
----

[CUETools log; Date: 2015.05.08. 10:54:24; Version: 2.1.4]
[CTDB TOCID: dpZpuq0i8SY0vLIg4AhUQZ8r5y4-] found.
Track | CTDB Status
1 | (1/1) Accurately ripped
2 | (1/1) Accurately ripped
3 | (1/1) Accurately ripped
4 | (1/1) Accurately ripped
5 | (1/1) Accurately ripped
[AccurateRip ID: 0008db37-002892bc-32091305] found.
Track [ CRC | V2 ] Status
01 [80de71bd|ca84440b] (1+0/2) Accurately ripped
02 [889d3384|3bb51b49] (1+0/2) Accurately ripped
03 [d7555e3d|2ce14eef] (1+0/2) Accurately ripped
04 [db24922c|248ee53f] (1+0/2) Accurately ripped
05 [943f3604|e4097c5b] (1+0/2) Accurately ripped
Offsetted by -18:
01 [9d01e443] (1/2) Accurately ripped
02 [f457f065] (1/2) Accurately ripped
03 [6cce015f] (1/2) Accurately ripped
04 [65b69772] (1/2) Accurately ripped
05 [62a05d74] (1/2) Accurately ripped

Track Peak [ CRC32 ] [W/O NULL] [ LOG ]
-- 97,0 [3DCB8654] [325C18EF] CRC32
01 96,6 [D5DAAFB0] [9E339443]
02 96,6 [79528347] [3108F632]
03 96,6 [12F2FF51] [89C669C1]
04 96,7 [5B9C5345] 8C8BF6A
05 97,0 [535485B2] [9F5A0F07]
DOWNLOAD LINKS:
Buy Premium To Support Me & Get Resumable Support & Max Speed


Links are Interchangeable - No Password - Single Extraction

Ian Gillan Band - Live at the Budokan Volumes I & II (1978) Fast Download


Ad2

 
 
 
Dear visitor, you went to the site as an unregistered user. We encourage you to register or enter the site under your name.
 
   
 
 (Votes #: 0)