2013Zone For Latest Downloads

 
     
 
Legal Downloads » Music » Kepi Ghoulie - Life Sentence (2009) RESTORED
Menu
Home Applications
Games Movies
Music TV Shows
Torrents Graphics

Sitemap

RSS
 
Advanced Search
Last News
Site Info
Top Contributors:
  1    supper88 32766
  2    admin 32671
  3    Whisky 10080
  4    Shark_ 8911
  5    creativelivenew 8706
  6    whathesupa 2799
  7    candymypost 840
  8    hvnteam 629
  9    vuong87 3


Articles:
  This Hour: 20
  Today: 20
  This Month: 58
  All Time: 515616


Torrents:
  Today: 20
  Yesterday: 0
  All Time: 156702


Membership:
  Registered Today :0
  This Hour:0
  This Month:0
  Total:14
  Banned:1

{online}
{inform_torrent}
Friend:
We Recomend
Trend
Trend
Ad1

Search In Site

Music : Kepi Ghoulie - Life Sentence (2009) RESTORED
 

http://i48.fastpic.ru/big/2015/0512/1e/a36a303cd09bb311aef791ee32188a1e.jpg
Kepi Ghoulie - Life Sentence (2009)
APE+CUE+LOG or MP3 CBR 320 | all Scans | 176 or 56 MB
Kepi is back with his third full-length solo album, released via Asian Man label

Kepi was the bassist and vocalist for Sacramento, California based pop-punk band the Groovie Ghoulies. He has been recording and touring both with a full band and as an acoustic soloist since the Ghoulies' break-up in mid 2007.
http://i58.fastpic.ru/big/2015/0512/30/903dcecb6fbb21573edf46222d369830.jpg

"Kepi comes out punching with a brand new rock album that features all the characteristics that make Kepi the genius that he is. Full of pop punk classics to be, Kepi experiments with keyboards to give the songs an added flair, but the Kepi style is still intact and ready for you to enjoy.

"

Tracklist:

01. Fortune Teller
02. Spell Caster
03. The Next In Line
04. Have You Seen Her
05. Bye Bye Brain
06. Life Sentence
07. Drain My Brain
08. Psycho Nightmare
09. Freaks On Parade
10. Brain Scrambling Device
11. Goodnight Cruel World

all songs by Kepi except "8" by Daniel Johnston

Exact Audio Copy V0.99 prebeta 5 from 4. May 2009

EAC extraction logfile from 15. December 2009, 10:18

Kepi Ghoulie / Life Sentence

Used drive : PIONEER DVD-RW DVR-116D Adapter: 1 ID: 0

Read mode : Secure
Utilize accurate stream : Yes
Defeat audio cache : Yes
Make use of C2 pointers : No

Read offset correction

: 96
Overread into Lead-In and Lead-Out : No
Fill up missing offset samples with silence : Yes
Delete leading and trailing silent blocks : No
Null samples used in CRC calculations : Yes
Used interface
: Installed external ASPI interface

Used output format : Internal WAV Routines
Sample format : 44.100 Hz; 16 Bit; Stereo

TOC of the extracted CD Track | Start | Length | Start sector | End sector
1 | 0:00.00 | 2:07.08 | 0 | 9532 2 | 2:07.08 | 1:48.72 | 9533 | 17704 3 | 3:56.05 | 2:00.29 | 17705 | 26733 4 | 5:56.34 | 2:42.53 | 26734 | 38936 5 | 8:39.12 | 2:01.65 | 38937 | 48076 6 | 10:41.02 | 1:59.48 | 48077 | 57049 7 | 12:40.50 | 1:44.69 | 57050 | 64918 8 | 14:25.44 | 1:52.40 | 64919 | 73358 9 | 16:18.09 | 3:21.17 | 73359 | 88450
10 | 19:39.26 | 2:47.74 | 88451 | 101049
11 | 22:27.25 | 2:26.29 | 101050 | 112028

Range status and errors

Selected range Filename C:\AvaxHome.ru\Kepi Ghoulie - Life Sentence (2009)\Kepi Ghoulie - Life Sentence (AM 191-2).wav Peak level 100.0 %
Range quality 100.0 %
Test CRC F617ED93
Copy CRC F617ED93
Copy OK

No errors occurred


AccurateRip summary

Track 1 not present in database
Track 2 not present in database
Track 3 not present in database
Track 4 not present in database
Track 5 not present in database
Track 6 not present in database
Track 7 not present in database
Track 8 not present in database
Track 9 not present in database
Track 10 not present in database
Track 11 not present in database

None of the tracks are present in the AccurateRip database

End of status report

Recorded, Engineered, Mixed, Mastered, and more by David Houston
Recorded at the House Of Dark Lords, in Sacramento, CA.

* Kepi Ghoulie - vocals, guitars, drums, keys
* David Houston - percussion, vocals
* Dino - bass

additional musicians:
- Atom Bomb - tour drums
- Kevin Seconds - vocals
- Jeffrey Ject - organ

Release Date: November 10, 2009
Label: Asian Man Records
Catalog No.: ASM 191-2
DOWNLOAD LINKS:
Buy Premium To Support Me & Get Resumable Support & Max Speed


Links are Interchangeable - No Password - Single Extraction

Kepi Ghoulie - Life Sentence (2009) RESTORED Fast Download


Ad2

 
 
 
Dear visitor, you went to the site as an unregistered user. We encourage you to register or enter the site under your name.
 
   
 
 (Votes #: 0)