2013Zone For Latest Downloads

 
     
 
Legal Downloads » Music » Hot Chocolate - Greatest Hits On CD & DVD (2012) [CD+DVD]
Menu
Home Applications
Games Movies
Music TV Shows
Torrents Graphics

Sitemap

RSS
 
Advanced Search
Last News
Site Info
Top Contributors:
  1    supper88 32766
  2    admin 32671
  3    Whisky 10080
  4    Shark_ 8911
  5    creativelivenew 8706
  6    whathesupa 2799
  7    candymypost 840
  8    hvnteam 629
  9    vuong87 3


Articles:
  This Hour: 0
  Today: 0
  This Month: 58
  All Time: 515616


Torrents:
  Today: 0
  Yesterday: 0
  All Time: 156702


Membership:
  Registered Today :0
  This Hour:0
  This Month:0
  Total:14
  Banned:1

{online}
{inform_torrent}
Friend:
We Recomend
Trend
Trend
Ad1

Search In Site

Music : Hot Chocolate - Greatest Hits On CD & DVD (2012) [CD+DVD]
 
http://i60.fastpic.ru/big/2015/0511/87/f852200a62e74c4a9812ecb37ec22e87.jpg

Hot Chocolate - Greatest Hits On CD & DVD (2012) [CD+DVD]
R&B, Soul/Funk, Pop/Rock | EAC Rip | FLAC, Img+CUE + LOG + Full Scans-300dpi (JPEG) | 79:00 Min | 482,35 Mb
DVD5 | PAL | 4:3 (720x576) VBR | LPCM 2.0 @ 1536 kbps | ~ 2,72 Gb
Label: EMI Records Ltd. (EU) | Released: 2012, August, 24

"
Hot Chocolate were the first British black group to achieve consistent success over a number of years, deservedly so based on the quality and variety of the R&B music that they recorded. The star of the group was lead singer Errol Brown, who also wrote or co-wrote many of their songs. They had thirty original hits on the UK charts between 1970 and 1984, plus a further two 1987 hits via re-mixes.
"

http://i60.fastpic.ru/big/2015/0511/0f/92cddabe10d5c029bb894bffda5e7f0f.jpg

http://i48.fastpic.ru/big/2015/0511/f3/cf39848ec921e669ddf9ab19ad3c61f3.jpg

http://i59.fastpic.ru/big/2015/0511/0d/605dca9d58fc30f8235345100ebe060d.jpg


Release of this Set: 2012, August, 24 [CD+DVD5 EMI Records Ltd. (EU), Cat.# 5099963607529 / UPC: 5099963607529]
© & ℗ 2012 EMI Records Ltd.
Manufactured By Optimal Media GmbH

Eight page booklet with track credits and brief biography.
Although not noted as such, "You Sexy Thing" is the 1987 Ben Liebrand remix version.

Tracklist:

DISC ONE - CD:

01. So You Win Again (Russell Ballard) 1977
02. You Sexy Thing (Errol Brown) 1975 (1987)
Remix ncredited - Ben Liebrand
03. Put Your Love In Me (Errol Brown) 1977
04. Love Is Life (Errol Brown/T Wilson) 1970
05. You'll Always Be A Friend (T Wilson/Erol Brown) 1972
06. Rumours (Errol Brown/T Wilson) 1973
07. I Believe In Love (T Wilson/Erol Brown) 1971
08. A Child's Prayer (Errol Brown) 1975
09. Don't Stop It Now (Errol Brown) 1976
10. I'll Put You Together Again (Geoff Stephers/Don Black) 1978
11. Emma (Errol Brown/T Wilson) 1974
12. Brother Louie (Errol Brown/T Wilson) 1973
13. Man To Man (Errol Brown) 1976
14. Cheri Babe (Errol Brown/T Wilson) 1974
15. Mindless Boogie (Errol Brown) 1979
16. You Could've Been A Lady (Errol Brown) 1971
17. Going Through The Motions (Errol Brown) 1979
18. Heaven Is In The Back Seat Of My Cadillac (Errol Brown) 1976
19. Disco Queen (Errol Brown/T Wilson) 1975
20. Every 1's A Winner (Errol Brown) 1978

Exact Audio Copy V0.99 prebeta 5 from 4. May 2009

EAC extraction logfile from 9. May 2015, 13:35

Hot Chocolate / Greatest Hits On CD & DVD (Disc One - Audio)

Used drive : ATAPI iHAS122 C Adapter: 1 ID: 1

Read mode : Secure
Utilize accurate stream : Yes
Defeat audio cache : Yes
Make use of C2 pointers : No

Read offset correction

: 6
Overread into Lead-In and Lead-Out : No
Fill up missing offset samples with silence : Yes
Delete leading and trailing silent blocks : No
Null samples used in CRC calculations : Yes
Used interface
: Native Win32 interface for Win NT & 2000

Used output format : Monkey's Audio Lossless Encoder
Selected bitrate : High Lossless Compression
Quality : High
Add ID3 tag : No
Command line compressor : C:\Program Files (x86)\Monkey's Audio\MAC.exe
Additional command line options : -v

TOC of the extracted CD Track | Start | Length | Start sector | End sector
1 | 0:00.33 | 4:30.12 | 33 | 20294 2 | 4:30.45 | 3:41.35 | 20295 | 36904 3 | 8:12.05 | 5:42.68 | 36905 | 62622 4 | 13:54.73 | 3:36.50 | 62623 | 78872 5 | 17:31.48 | 3:24.07 | 78873 | 94179 6 | 20:55.55 | 4:29.58 | 94180 | 114412 7 | 25:25.38 | 3:49.02 | 114413 | 131589 8 | 29:14.40 | 3:50.55 | 131590 | 148894 9 | 33:05.20 | 2:56.15 | 148895 | 162109
10 | 36:01.35 | 3:51.45 | 162110 | 179479
11 | 39:53.05 | 3:47.05 | 179480 | 196509
12 | 43:40.10 | 4:52.30 | 196510 | 218439
13 | 48:32.40 | 4:21.50 | 218440 | 238064
14 | 52:54.15 | 2:52.08 | 238065 | 250972
15 | 55:46.23 | 4:19.17 | 250973 | 270414
16 | 60:05.40 | 3:47.38 | 270415 | 287477
17 | 63:53.03 | 4:09.55 | 287478 | 306207
18 | 68:02.58 | 3:54.62 | 306208 | 323819
19 | 71:57.45 | 3:06.33 | 323820 | 337802
20 | 75:04.03 | 3:57.25 | 337803 | 355602

Range status and errors

Selected range Filename C:\Users\London\Desktop\Hot Chocolate - Greatest Hits On CD & DVD (Disc One - Audio).wav Peak level 98.8 %
Range quality 100.0 %
Test CRC 86B8F111
Copy CRC 86B8F111
Copy OK

No errors occurred


AccurateRip summary

Track 1 accurately ripped (confidence 1) [2C358538]
Track 2 accurately ripped (confidence 1) [63A5CD26]
Track 3 accurately ripped (confidence 1) [D6AAC753]
Track 4 accurately ripped (confidence 1) [329FCB67]
Track 5 accurately ripped (confidence 1) [0298FCB3]
Track 6 accurately ripped (confidence 1) [522D5DB9]
Track 7 accurately ripped (confidence 1) [7F13253E]
Track 8 accurately ripped (confidence 1) [61DDF0AF]
Track 9 accurately ripped (confidence 1) [CA09099A]
Track 10 accurately ripped (confidence 1) [AC0CB820]
Track 11 accurately ripped (confidence 1) [7550C00F]
Track 12 accurately ripped (confidence 1) [DF214E97]
Track 13 accurately ripped (confidence 1) [40C0CD18]
Track 14 accurately ripped (confidence 1) [D273C95B]
Track 15 accurately ripped (confidence 1) [C5A87227]
Track 16 accurately ripped (confidence 1) [4A4991BE]
Track 17 accurately ripped (confidence 1) [C73DA629]
Track 18 accurately ripped (confidence 1) [6350AE62]
Track 19 accurately ripped (confidence 1) [39786F35]
Track 20 accurately ripped (confidence 1) [4CF71138]

All tracks accurately ripped

End of status report

foobar2000 1.3.7 / Dynamic Range Meter 1.1.1
log date: 2015-05-09 20:45:40

------
Analyzed: Hot Chocolate / Greatest Hits On CD & DVD (Disc One - Audio)
------

DR Peak RMS Duration Track
------
DR11 -1.11 dB -14.55 dB 4:30 01-So you win again (1977)
DR13 -0.20 dB -14.68 dB 3:41 02-You sexy thing (1975)
DR11 -0.10 dB -13.01 dB 5:43 03-Put your love in me (1977)
DR12 -0.70 dB -13.95 dB 3:37 04-Love is life (1970)
DR11 -0.64 dB -15.29 dB 3:24 05-You'll always be a friend (1972)
DR11 -2.37 dB -16.01 dB 4:30 06-Rumours (1973)
DR12 -1.12 dB -15.10 dB 3:49 07-I believe (in love) (1971)
DR13 -1.07 dB -16.76 dB 3:51 08-A child's payer (1975)
DR11 -0.23 dB -14.04 dB 2:56 09-Don't stop it now (1976)
DR10 -3.17 dB -15.99 dB 3:52 10-I'll put you together again (1978)
DR11 -1.78 dB -14.55 dB 3:47 11-Emma (1974)
DR11 -0.20 dB -14.02 dB 4:52 12-Brother in love (1973)
DR12 -0.10 dB -14.11 dB 4:22 13-Man to man (1976)
DR12 -0.10 dB -13.90 dB 2:52 14-Cheri babe (1974)
DR12 -0.10 dB -14.19 dB 4:19 15-Mindless Boogie (1979)
DR11 -0.58 dB -13.55 dB 3:48 16-You could've been a lady (1971)
DR12 -0.25 dB -14.24 dB 4:10 17-Going through the motions (1979)
DR14 -0.10 dB -15.81 dB 3:55 18-Heaven is in the back seat of my Cadillac (1976)
DR12 -2.00 dB -16.36 dB 3:06 19-Disco queen (1975)
DR10 -1.09 dB -13.34 dB 3:57 20-Every 1's a winner (1978)
------

Number of tracks: 20
Official DR value: DR12

Samplerate: 44100 Hz
Channels: 2
Bits per sample: 16
Bitrate: 804 kbps
Codec: FLAC

http://i57.fastpic.ru/big/2015/0511/4c/d324216980ce0ed266be2970cb8f114c.jpg

http://i48.fastpic.ru/big/2015/0511/8b/efacc5c45deb033309efbbc51260978b.jpg

http://i47.fastpic.ru/big/2015/0511/4f/36f56b730c55254e41053f11c778824f.jpg

http://i58.fastpic.ru/big/2015/0511/d2/c178e1bc0d33c1521a6fdeb639c416d2.jpg

http://i59.fastpic.ru/big/2015/0511/f0/f676f6fe69dbd7693808a7cf1fd5cbf0.jpg


DISC TWO - DVD:

01. You Sexy Thing (Errol Brown) 1975 (1987)
Remix ncredited - Ben Liebrand
02. Emma (Errol Brown/T Wilson) 1974
03. Heaven Is In The Back Seat Of My Cadillac (Errol Brown) 1976
04. Going Through The Motions (Errol Brown) 1979
05. Man To Man (Errol Brown) 1976
06. Put Your Love In Me (Errol Brown) 1977
07. So You Win Again (Russell Ballard) 1977
08. No Doubt About It (Errol Brown) 1980
09. Every 1's A Winner (Errol Brown) 1978
10. Tears on the Telephone (Errol Brown) 1983
11. Girl Crazy (Errol Brown) 1982
12. It Started With a Kiss (Errol Brown) 1982

Title: HOT CHOCOLATE - Greatest Hits (DVD)
Size: 2.70 Gb ( 2831554,00 KBytes ) - DVD-5
Enabled regions: 1, 2, 3, 4, 5, 6, 7, 8

VTS_01 :
Play Length: 00:00:42
Video: PAL 4:3 (720x576) VBR
Audio:
Not specified (Dolby AC3, 2 ch)

VTS_02 :
Play Length: 00:03:46
Video: PAL 4:3 (720x576) VBR
Audio:
Not specified (LinearPCM, 2 ch)

VTS_03 :
Play Length: 00:03:55
Video: PAL 4:3 (720x576) VBR
Audio:
Not specified (LinearPCM, 2 ch)

VTS_04 :
Play Length: 00:04:05
Video: PAL 4:3 (720x576) VBR
Audio:
Not specified (LinearPCM, 2 ch)

VTS_05 :
Play Length: 00:04:22
Video: PAL 4:3 (720x576) VBR
Audio:
Not specified (LinearPCM, 2 ch)

VTS_06 :
Play Length: 00:04:34
Video: PAL 4:3 (720x576) VBR
Audio:
Not specified (LinearPCM, 2 ch)

VTS_07 :
Play Length: 00:05:49
Video: PAL 4:3 (720x576) VBR
Audio:
Not specified (LinearPCM, 2 ch)

VTS_08 :
Play Length: 00:04:35
Video: PAL 4:3 (720x576) VBR
Audio:
Not specified (LinearPCM, 2 ch)

VTS_09 :
Play Length: 00:04:18
Video: PAL 4:3 (720x576) VBR
Audio:
Not specified (LinearPCM, 2 ch)

VTS_10 :
Play Length: 00:04:04
Video: PAL 4:3 (720x576) VBR
Audio:
Not specified (LinearPCM, 2 ch)

VTS_11 :
Play Length: 00:03:13
Video: PAL 4:3 (720x576) VBR
Audio:
Not specified (LinearPCM, 2 ch)

VTS_12 :
Play Length: 00:03:25
Video: PAL 4:3 (720x576) VBR
Audio:
Not specified (LinearPCM, 2 ch)

VTS_13 :
Play Length: 00:04:01
Video: PAL 4:3 (720x576) VBR
Audio:
Not specified (LinearPCM, 2 ch)
DOWNLOAD LINKS:
Buy Premium To Support Me & Get Resumable Support & Max Speed


Links are Interchangeable - No Password - Single Extraction



Ad2

 
 
 
Dear visitor, you went to the site as an unregistered user. We encourage you to register or enter the site under your name.
 
   
 
 (Votes #: 0)