2013Zone For Latest Downloads

 
     
 
Legal Downloads » TV Shows » National Geographic - Cobra Mafia (2015)
Menu
Home Applications
Games Movies
Music TV Shows
Torrents Graphics

Sitemap

RSS
 
Advanced Search
Last News
Site Info
Top Contributors:
  1    supper88 32766
  2    admin 32693
  3    Whisky 10080
  4    Shark_ 8911
  5    creativelivenew 8706
  6    whathesupa 2799
  7    candymypost 840
  8    hvnteam 629
  9    vuong87 3


Articles:
  This Hour: 0
  Today: 0
  This Month: 10
  All Time: 515561


Torrents:
  Today: 0
  Yesterday: 0
  All Time: 156684


Membership:
  Registered Today :0
  This Hour:0
  This Month:0
  Total:14
  Banned:1

{online}
{inform_torrent}
Friend:
We Recomend
Trend
Trend
Ad1

Search In Site

TV Shows : National Geographic - Cobra Mafia (2015)
 

http://i48.fastpic.ru/big/2015/0511/55/d9d4626b87cf50d59f7beec6c1e7c955.jpg
National Geographic - Cobra Mafia (2015)
HDTV | 1280x720 | .MKV/AVC @ 2267 Kbps | 43mn 49s | Audio: English AC3 384 kbps, 6 channels | Subs: None | 848 MiB
Genre: Documentary

"There's a tight-knit snake family that rules reptilian streets with impressive firepower and a fearsome reputation. Equipped with an array of deadly weapons and a bad attitude, the Cobra family instills fear and chaos throughout the wilds of Africa and Asia. But who brings what to the table? The King cobra rules this beat, the Boss runs operations on the ground, The Killer and the Spitter do all the dirty work, and The Faker is the out-of-town cousin with a growing reputation."

General
Unique ID
: 184899838808352654809572607220696727977 (0x8B1A69E37B313A47C2DBF7DB9937C1A9)
Complete name : nat.geo.cobra.mafia.mkv
Format
: Matroska
Format version : Version 4 / Version 2
File size
: 848 MiB
Duration
: 43mn 49s
Overall bit rate : 2 705 Kbps

Video
ID : 1
Format
: AVC
Format/Info
: Advanced Video Codec
Format profile : [email protected]
Format settings, CABAC : Yes
Format settings, ReFrames : 8 frames
Codec ID
: V_MPEG4/ISO/AVC
Duration
: 43mn 49s
Bit rate
: 2 267 Kbps
Width
: 1 280 pixels
Height
: 720 pixels
Display aspect ratio : 16:9
Frame rate
: 25.000 fps
Color space
: YUV
Chroma subsampling

: 4:2:0
Bit depth
: 8 bits
Scan type
: Progressive
Bits/(Pixel*Frame)

: 0.098
Stream size
: 710 MiB (84%)
Writing library : x264 core 146 r2538 121396c
Encoding settings: cabac=1 / ref=8 / deblock=1:0:0 / analyse=0x3:0x113 / me=umh / subme=9 / psy=1 / psy_rd=1.00:0.00 / mixed_ref=1 / me_range=16 / chroma_me=1 / trellis=1 / 8x8dct=1 / cqm=0 / deadzone=21,11 / fast_pskip=0 / chroma_qp_offset=-2 / threads=12 / lookahead_threads=1 / sliced_threads=0 / nr=0 / decimate=1 / interlaced=0 / bluray_compat=0 / constrained_intra=0 / bframes=3 / b_pyramid=2 / b_adapt=2 / b_bias=0 / direct=3 / weightb=1 / open_gop=0 / weightp=2 / keyint=250 / keyint_min=25 / scenecut=40 / intra_refresh=0 / rc_lookahead=50 / rc=crf / mbtree=1 / crf=20.0 / qcomp=0.60 / qpmin=0 / qpmax=69 / qpstep=4 / ip_ratio=1.40 / aq=1:1.00
Language
: English
Default
: Yes
Forced
: No

Audio
ID : 2
Format
: AC-3
Format/Info
: Audio Coding 3
Mode extension : CM (complete main)
Format settings, Endianness : Big
Codec ID
: A_AC3
Duration
: 43mn 49s
Bit rate mode : Constant
Bit rate
: 384 Kbps
Channel(s)
: 6 channels
Channel positions: Front: L C R, Side: L R, LFE
Sampling rate : 48.0 KHz
Bit depth
: 16 bits
Compression mode : Lossy
Stream size
: 120 MiB (14%)
Default
: Yes
Forced
: No

Screenshots:

http://i60.fastpic.ru/big/2015/0511/2e/6d85dc73d904f1564a2c7809bc0d3c2e.jpg

http://i47.fastpic.ru/big/2015/0511/e1/8b0c448b046234ddfe80c066e4a4b6e1.jpg

http://i57.fastpic.ru/big/2015/0511/c7/991124a502f5773e27f0c174607e40c7.jpg

http://i47.fastpic.ru/big/2015/0511/41/75a7aa1e12ededce6def096c369bb841.jpg


DOWNLOAD LINKS:
Buy Premium To Support Me & Get Resumable Support & Max Speed


Links are Interchangeable - No Password - Single Extraction

National Geographic - Cobra Mafia (2015) Fast Download


Ad2

 
 
 
Dear visitor, you went to the site as an unregistered user. We encourage you to register or enter the site under your name.
 
   
 
 (Votes #: 0)