2013Zone For Latest Downloads

 
     
 
Legal Downloads » TV Shows » HC Sea Tales - Blackbeards Reign of Terror (1997)
Menu
Home Applications
Games Movies
Music TV Shows
Torrents Graphics

Sitemap

RSS
 
Advanced Search
Last News
Site Info
Top Contributors:
  1    supper88 32766
  2    admin 32693
  3    Whisky 10080
  4    Shark_ 8911
  5    creativelivenew 8706
  6    whathesupa 2799
  7    candymypost 840
  8    hvnteam 629
  9    vuong87 3


Articles:
  This Hour: 0
  Today: 0
  This Month: 10
  All Time: 515561


Torrents:
  Today: 0
  Yesterday: 0
  All Time: 156684


Membership:
  Registered Today :0
  This Hour:0
  This Month:0
  Total:14
  Banned:1

{online}
{inform_torrent}
Friend:
We Recomend
Trend
Trend
Ad1

Search In Site

TV Shows : HC Sea Tales - Blackbeards Reign of Terror (1997)
 

http://i47.fastpic.ru/big/2015/0512/d3/5a0625b0ec6c2cfa37fde5e05d8a88d3.jpg
HC Sea Tales - Blackbeards Reign of Terror (1997)
VHS | 720x544 | .AVI/DivX @ 2350 Kbps | 47mn 46s | Audio: English AC3 256 kbps, 2 channels | Subs: None | 894 MiB
Genre: Documentary | History

"Blackbeard terrorized ships along the Atlantic Coast of North America and the Caribbean from 1716 to 1718. He raped, pillaged and plundered. He was as savage with his crew as he was with his prisoners. One crew member once said, "If he did not now and then kill one of us, we would forget who he was. SEA TALES: BLACKBEARD'S REIGN OF TERROR tells how the barbaric pirate piled his murderous trade until a substantial price was put on his head. A British Naval force led by Lt. Robert Maynard went after him. Maynard and Blackbeard engaged in a hand-to-hand fight on the deck of the Queen Anne's Revenge, Blackbeard's ship. The bloody outcome remains one of the most legendary sea battles ever recounted."

General
Complete name : HC.Sea.Tales.Blackbeards.Reign.of.Terror.avi
Format
: AVI
Format/Info
: Audio Video Interleave
File size
: 894 MiB
Duration
: 47mn 46s
Overall bit rate : 2 617 Kbps

Video
ID : 0
Format
: MPEG-4 Visual
Format profile : Advanced [email protected]
Format settings, BVOP : 1
Format settings, QPel : No
Format settings, GMC : No warppoints
Format settings, Matrix : Default (MPEG)
Codec ID
: DX50
Codec ID/Hint : DivX 5
Duration
: 47mn 46s
Bit rate
: 2 350 Kbps
Width
: 720 pixels
Height
: 544 pixels
Display aspect ratio : 4:3
Frame rate
: 29.970 fps
Color space
: YUV
Chroma subsampling

: 4:2:0
Bit depth
: 8 bits
Scan type
: Progressive
Compression mode : Lossy
Bits/(Pixel*Frame)

: 0.200
Stream size
: 803 MiB (90%)
Writing library : XviD 1.2.1 (UTC 2008-12-04)

Audio
ID : 1
Format
: AC-3
Format/Info
: Audio Coding 3
Mode extension : CM (complete main)
Format settings, Endianness : Big
Codec ID
: 2000
Duration
: 47mn 46s
Source duration : 47mn 46s
Bit rate mode : Constant
Bit rate
: 256 Kbps
Channel(s)
: 2 channels
Channel positions: Front: L R
Sampling rate : 48.0 KHz
Bit depth
: 16 bits
Compression mode : Lossy
Stream size
: 87.5 MiB (10%)
Alignment
: Aligned on interleaves
Interleave, duration : 33 ms (1.00 video frame)

Screenshots:

http://i60.fastpic.ru/big/2015/0512/1b/61e2ed9a2da274d6930488c050259d1b.jpg

http://i57.fastpic.ru/big/2015/0512/9b/34b03c1294e107dde772297a064ca79b.jpg

http://i59.fastpic.ru/big/2015/0512/5d/020369adf8e4d85cdc9826073ec8665d.jpg

http://i47.fastpic.ru/big/2015/0512/c3/a0603c24225567cbeb8a5766b77f2ec3.jpg


DOWNLOAD LINKS:
Buy Premium To Support Me & Get Resumable Support & Max Speed


Links are Interchangeable - No Password - Single Extraction

HC Sea Tales - Blackbeards Reign of Terror (1997) Fast Download


Ad2

 
 
 
Dear visitor, you went to the site as an unregistered user. We encourage you to register or enter the site under your name.
 
   
 
 (Votes #: 0)