2013Zone For Latest Downloads

 
     
 
Legal Downloads » Music » Kenny Neal - What You Got (2000)
Menu
Home Applications
Games Movies
Music TV Shows
Torrents Graphics

Sitemap

RSS
 
Advanced Search
Last News
Site Info
Top Contributors:
  1    supper88 32766
  2    admin 32708
  3    Whisky 10080
  4    Shark_ 8911
  5    creativelivenew 8706
  6    whathesupa 2799
  7    candymypost 840
  8    hvnteam 629
  9    vuong87 3


Articles:
  This Hour: 0
  Today: 17
  This Month: 17
  All Time: 515518


Torrents:
  Today: 0
  Yesterday: 0
  All Time: 156676


Membership:
  Registered Today :0
  This Hour:0
  This Month:0
  Total:14
  Banned:1

{online}
{inform_torrent}
Friend:
Full Download Scripts
Torrent Download
Trend
Trend

Search In Site

Music : Kenny Neal - What You Got (2000)
 
http://i59.fastpic.ru/big/2015/0512/b9/bd131a2d7fbef6892849f12706fe2db9.jpg

Kenny Neal - What You Got (2000)
EAC | FLAC | Image (Cue&Log) ~ 403 Mb (incl 5%) | Mp3 (CBR320) ~ 140 Mb (incl 5%) | Scans included
Genre: Modern Electric Blues, Swamp Blues | Label: Telarc | # CD-83467 | Time: 00:51:50

"This is Neal's third album for Telarc and it's definitely one of his best releases to date. He's long been known for his Louisiana blues groove, but this CD will force critics and fans to reassess their take on Neal's sound. Tracks like "Two Wrongs Don't Make a Right," "Little Brother (Make a Way)," "I'm The Man Your Mama Told You About," "Loving on Borrowed Time," and "Deja Vu" are robust numbers that variously evince Chicago and Memphis influences, while the title track is a gorgeous bit of soul music that showcases Neal's mature voice. In fact, one of the major highlights of this collection is Neal's vocal work. He has become an exceptional blues singer, with a powerful and wonderfully nuanced voice. Add his excellent lead guitar work and make note of the fact that he wrote, or co-authored, nine of the 12 songs on this disc. The guy has become a multiple-threat bluesman and this album, in demonstrating that, has to be seen as a pivotal point in Neal's discography."



Tracklist:

01. I Smell Smoke (04:41)
02. Two Wrongs Don't Make A Right (04:04)
03. Neal And Pray (03:30)
04. Little Brother (Make A Way) (04:30)
05. What You Got (04:31)
06. Blues Ain't Nothing But A Good Man Feeling Bad (04:16)
07. Deja Vu (04:01)
08. I'm The Man Your Mama Told You About (02:46)
09. Loving On Borrowed Time (04:02)
10. You've Been Spying On Me (05:15)
11. Never Thought About Growing Old (05:51)
12. Killed The Goose That Laid The Golden Egg (04:18)


Exact Audio Copy V0.99 prebeta 5 from 4. May 2009

EAC extraction logfile from 5. June 2010, 1:23

Kenny Neal / What You Got

Used drive : HL-DT-STDVD-RAM GH22NP20 Adapter: 0 ID: 0

Read mode : Secure
Utilize accurate stream : Yes
Defeat audio cache : Yes
Make use of C2 pointers : No

Read offset correction

: 102
Overread into Lead-In and Lead-Out : No
Fill up missing offset samples with silence : Yes
Delete leading and trailing silent blocks : No
Null samples used in CRC calculations : Yes
Used interface
: Native Win32 interface for Win NT & 2000

Used output format : User Defined Encoder
Selected bitrate : 1024 kBit/s
Quality : High
Add ID3 tag : No
Command line compressor : C:\Program Files\FLAC\flac.exe
Additional command line options : -8 -V -T "ARTIST=%a" -T "TITLE=%t" -T "ALBUM=%g" -T "DATE=%y" -T "TRACKNUMBER=%n" -T "GENRE=%m" -T "COMMENT=EAC FLAC -8" %s

TOC of the extracted CD Track | Start | Length | Start sector | End sector
1 | 0:00.00 | 4:41.25 | 0 | 21099 2 | 4:41.25 | 4:04.02 | 21100 | 39401 3 | 8:45.27 | 3:30.48 | 39402 | 55199 4 | 12:16.00 | 4:30.22 | 55200 | 75471 5 | 16:46.22 | 4:31.03 | 75472 | 95799 6 | 21:17.25 | 4:16.65 | 95800 | 115064 7 | 25:34.15 | 4:01.47 | 115065 | 133186 8 | 29:35.62 | 2:46.68 | 133187 | 145704 9 | 32:22.55 | 4:02.32 | 145705 | 163886
10 | 36:25.12 | 5:15.08 | 163887 | 187519
11 | 41:40.20 | 5:51.42 | 187520 | 213886
12 | 47:31.62 | 4:18.20 | 213887 | 233256

Range status and errors

Selected range Filename C:\Kenny Neal - What You Got.wav Peak level 97.7 %
Range quality 100.0 %
Test CRC 1BCDCFEB
Copy CRC 1BCDCFEB
Copy OK

No errors occurred


AccurateRip summary

Track 1 accurately ripped (confidence 5) [F9EB2F7E]
Track 2 accurately ripped (confidence 5) [F946EBE9]
Track 3 accurately ripped (confidence 5) [143D7738]
Track 4 accurately ripped (confidence 5) E576BCA
Track 5 accurately ripped (confidence 5) [7DA1275E]
Track 6 accurately ripped (confidence 5) [25D722B3]
Track 7 accurately ripped (confidence 5) [E0EECFB9]
Track 8 accurately ripped (confidence 5) ED08EF7
Track 9 accurately ripped (confidence 5) F764F34
Track 10 accurately ripped (confidence 5) [31AE20F8]
Track 11 accurately ripped (confidence 5) [4F02210C]
Track 12 accurately ripped (confidence 5) [EF58E913]

All tracks accurately ripped

End of status report

[CUETools log; Date: 10.05.2015 22:30:28; Version: 2.1.5]
[CTDB TOCID: h2XWPIJIaU4eDxQbFEiZx679Z8s-] found.
Track | CTDB Status
1 | (8/8) Accurately ripped
2 | (8/8) Accurately ripped
3 | (8/8) Accurately ripped
4 | (8/8) Accurately ripped
5 | (8/8) Accurately ripped
6 | (8/8) Accurately ripped
7 | (8/8) Accurately ripped
8 | (8/8) Accurately ripped
9 | (8/8) Accurately ripped
10 | (8/8) Accurately ripped
11 | (8/8) Accurately ripped
12 | (8/8) Accurately ripped
[AccurateRip ID: 0016933a-00d2d1ae-af0c260c] found.
Track [ CRC | V2 ] Status
01 [f9eb2f7e|6cad91a4] (08+04/19) Accurately ripped
02 [f946ebe9|e974f95f] (08+04/19) Accurately ripped
03 [143d7738|bdb70603] (08+04/19) Accurately ripped
04 e576bca|f95fa73e (08+04/19) Accurately ripped
05 [7da1275e|288f7bf6] (08+04/19) Accurately ripped
06 [25d722b3|a8e93ba6] (08+04/19) Accurately ripped
07 [e0eecfb9|f0c86a34] (08+04/19) Accurately ripped
08 ed08ef7|5e83907f (08+04/19) Accurately ripped
09 f764f34|5a9103fc (08+04/19) Accurately ripped
10 [31ae20f8|61d827dd] (08+04/19) Accurately ripped
11 [4f02210c|77e9e268] (08+04/19) Accurately ripped
12 [ef58e913|11bc5c40] (08+04/19) Accurately ripped
Offsetted by -307:
01 [64118ca7] (00/19) No match (V2 was not tested)
02 [2a98db40] (00/19) No match (V2 was not tested)
03 [7a8e008d] (00/19) No match (V2 was not tested)
04 [30ab8414] (00/19) No match (V2 was not tested)
05 [9ccc9fcb] (00/19) No match (V2 was not tested)
06 [3004984b] (00/19) No match (V2 was not tested)
07 [5c45154f] (00/19) No match (V2 was not tested)
08 [1083565d] (00/19) No match (V2 was not tested)
09 [f351f018] (00/19) No match (V2 was not tested)
10 [f729fe2d] (00/19) No match (V2 was not tested)
11 [918f9664] (00/19) No match (V2 was not tested)
12 [650bc108] (00/19) No match (V2 was not tested)

Track Peak [ CRC32 ] [W/O NULL] [ LOG ]
-- 97,7 [1BCDCFEB] [2D1B089C] CRC32
01 97,7 [0858470C] [D7E876E5]
02 97,7 [249A0959] [6B756293]
03 97,7 [C67709E1] [8FB104F9]
04 97,7 [C084D710] 2EA60F0
05 97,7 [8FD0B009] [023209C7]
06 97,7 [FEAF0FB1] [DF7ABEFB]
07 97,7 [5D724940] [7BDA5C35]
08 97,7 [288B14E5] [0602641D]
09 97,7 [FF2B4923] [CA527A8F]
10 97,7 [250D65FF] [486C9C1D]
11 97,7 [00A6AEA9] [678B547D]
12 97,7 [E1C6E171] [4435A199]

foobar2000 1.3.8 / Dynamic Range Meter 1.1.1
log date: 2015-05-10 22:18:08

------
Analyzed: Kenny Neal / What You Got
------

DR Peak RMS Duration Track
------
DR7 -0.20 dB -8.36 dB 4:41 01-I Smell Smoke
DR7 -0.20 dB -8.68 dB 4:04 02-Two Wrongs Don't Make A Right
DR6 -0.20 dB -7.45 dB 3:31 03-Neal And Pray
DR8 -0.20 dB -9.36 dB 4:30 04-Little Brother (Make A Way)
DR9 -0.20 dB -11.20 dB 4:31 05-What You Got
DR7 -0.20 dB -9.07 dB 4:17 06-Blues Ain't Nothing But A Good Man Feeling Bad
DR8 -0.20 dB -9.70 dB 4:02 07-Deja Vu
DR8 -0.20 dB -9.86 dB 2:47 08-I'm The Man Your Mama Told You About
DR7 -0.20 dB -8.86 dB 4:02 09-Loving On Borrowed Time
DR7 -0.20 dB -8.59 dB 5:15 10-You've Been Spying On Me
DR7 -0.20 dB -9.62 dB 5:52 11-Never Thought About Growing Old
DR7 -0.20 dB -8.91 dB 4:18 12-Killed The Goose That Laid The Golden Egg
------

Number of tracks: 12
Official DR value: DR8

Samplerate: 44100 Hz
Channels: 2
Bits per sample: 16
Bitrate: 904 kbps
Codec: FLAC

http://i60.fastpic.ru/big/2015/0512/56/57ba8842b0b76a10badcf44d0ace0656.jpg

http://i59.fastpic.ru/big/2015/0512/3f/2184c86179258ff1b7eb4077594b523f.jpg

All thanks to original releaser - рмх222




DOWNLOAD LINKS:
Buy Premium To Support Me & Get Resumable Support & Max Speed


Links are Interchangeable - No Password - Single Extraction

Kenny Neal - What You Got (2000) Fast Download



 
 
 
Dear visitor, you went to the site as an unregistered user. We encourage you to register or enter the site under your name.
 
   
 
 (Votes #: 0)