2013Zone For Latest Downloads

 
     
 
Legal Downloads » Music » Ralph Towner & Gary Peacock - A Closer View (1998) {ECM 1602} [Re-Up]
Menu
Home Applications
Games Movies
Music TV Shows
Torrents Graphics

Sitemap

RSS
 
Advanced Search
Last News
Site Info
Top Contributors:
  1    supper88 32766
  2    admin 32693
  3    Whisky 10080
  4    Shark_ 8911
  5    creativelivenew 8706
  6    whathesupa 2799
  7    candymypost 840
  8    hvnteam 629
  9    vuong87 3


Articles:
  This Hour: 0
  Today: 0
  This Month: 10
  All Time: 515561


Torrents:
  Today: 0
  Yesterday: 0
  All Time: 156684


Membership:
  Registered Today :0
  This Hour:0
  This Month:0
  Total:14
  Banned:1

{online}
{inform_torrent}
Friend:
We Recomend
Trend
Trend
Ad1

Search In Site

Music : Ralph Towner & Gary Peacock - A Closer View (1998) {ECM 1602} [Re-Up]
 
http://i47.fastpic.ru/big/2015/0512/e7/56ab6f3b6932fc9b8e80f09f1ef516e7.jpg

Ralph Towner & Gary Peacock - A Closer View (1998) {ECM 1602}
EAC 0.99pb4 | FLAC tracks level 8 | Cue+Log+M3U | Full Scans 300dpi | 190MB + 5% Recovery
MP3 CBR 320 Kbps | 131MB + 5% Recovery
Genre: Jazz, Fusion

"A Closer View is the successor to 1993's Oracle, a record described by Downbeat as "charming and thoughtful, conveying the familiarity and empathy of partners who have worked together for years. Towner and Peacock share a deep interest in Bill Evans' music, which manifests itself in the light touch, intricacy and sensitivity that pervade the session." Oracle was initiated as Peacock's project and featured primarily the bassist's compositions. A Closer View reverses the formula, highlighting Towner's pieces. There are seven new tunes from the guitarist and three off-the-cuff joint compositions in an album completed by one Peacock "classic", the song "Moor"."

Track List
01. Opalesque 3:29
02. Viewpoint 1:19
03. Mingusiana 4:03
04. Creeper 6:10
05. Infrared 3:55
06. From Branch To Branch 5:13
07. Postcard To Salta 3:12
08. Toledo 6:18
09. Amber Captive 4:15
10. Moor 4:59
11. Beppo 6:24
12. A Closer View 4:48

musicians
Ralph Towner - classical and 12-string guitars
Gary Peacock - double-bass

Produced by Manfred Eicher

Exact Audio Copy V0.99 prebeta 4 from 23. January 2008

EAC extraction logfile from 8. December 2009, 11:39

Gary Peacock and Ralph Towner / A Closer View

Used drive : ATAPI CD-RW CW4801 Adapter: 4 ID: 0

Read mode : Secure
Utilize accurate stream : Yes
Defeat audio cache : Yes
Make use of C2 pointers : No

Read offset correction

: 688
Overread into Lead-In and Lead-Out : No
Fill up missing offset samples with silence : Yes
Delete leading and trailing silent blocks : No
Null samples used in CRC calculations : Yes
Used interface
: Native Win32 interface for Win NT & 2000
Gap handling
: Appended to previous track

Used output format : User Defined Encoder
Selected bitrate : 192 kBit/s
Quality : High
Add ID3 tag : No
Command line compressor : C:\Program Files\flac\flac.exe
Additional command line options : -V -8 -T "artist=%a" -T "title=%t" -T "album=%g" -T "date=%y" -T "tracknumber=%n" -T "genre=%m" %s

TOC of the extracted CD Track | Start | Length | Start sector | End sector
1 | 0:00.00 | 3:29.27 | 0 | 15701 2 | 3:29.27 | 1:23.50 | 15702 | 21976 3 | 4:53.02 | 4:06.73 | 21977 | 40499 4 | 9:00.00 | 6:10.40 | 40500 | 68289 5 | 15:10.40 | 3:56.32 | 68290 | 86021 6 | 19:06.72 | 5:14.55 | 86022 | 109626 7 | 24:21.52 | 3:15.25 | 109627 | 124276 8 | 27:37.02 | 6:21.08 | 124277 | 152859 9 | 33:58.10 | 4:17.70 | 152860 | 172204
10 | 38:16.05 | 5:01.72 | 172205 | 194851
11 | 43:18.02 | 6:28.20 | 194852 | 223971
12 | 49:46.22 | 4:48.10 | 223972 | 245581

Track 1 Filename C:\EACrips\Gary Peacock and Ralph Towner - 1998 - A Closer View [FLAC]\01 - Opalesque.wav Pre-gap length 0:00:02.00 Peak level 71.1 %
Track quality 100.0 %
Test CRC E3152351
Copy CRC E3152351
Accurately ripped (confidence 2) [EF4A1579]
Copy OK

Track 2 Filename C:\EACrips\Gary Peacock and Ralph Towner - 1998 - A Closer View [FLAC]\02 - Viewpoint.wav Peak level 54.3 %
Track quality 99.8 %
Test CRC 8511A160
Copy CRC 8511A160
Accurately ripped (confidence 2) [8B31F2EF]
Copy OK

Track 3 Filename C:\EACrips\Gary Peacock and Ralph Towner - 1998 - A Closer View [FLAC]\03 - Mingusiana.wav Pre-gap length 0:00:03.76 Peak level 86.6 %
Track quality 100.0 %
Test CRC 1D067EDE
Copy CRC 1D067EDE
Accurately ripped (confidence 2) [83AB6204]
Copy OK

Track 4 Filename C:\EACrips\Gary Peacock and Ralph Towner - 1998 - A Closer View [FLAC]\04 - Creeper.wav Pre-gap length 0:00:03.57 Peak level 90.6 %
Track quality 100.0 %
Test CRC 8000CA19
Copy CRC 8000CA19
Accurately ripped (confidence 2) [D70BAAC6]
Copy OK

Track 5 Filename C:\EACrips\Gary Peacock and Ralph Towner - 1998 - A Closer View [FLAC]\05 - Infrared.wav Peak level 90.4 %
Track quality 99.9 %
Test CRC 25E33DD9
Copy CRC 25E33DD9
Accurately ripped (confidence 2) [55406341]
Copy OK

Track 6 Filename C:\EACrips\Gary Peacock and Ralph Towner - 1998 - A Closer View [FLAC]\06 - From Branch to Branch.wav Pre-gap length 0:00:00.60 Peak level 90.8 %
Track quality 100.0 %
Test CRC 3F7C0BAB
Copy CRC 3F7C0BAB
Accurately ripped (confidence 2) [28C3D286]
Copy OK

Track 7 Filename C:\EACrips\Gary Peacock and Ralph Towner - 1998 - A Closer View [FLAC]\07 - Postcard to Salta.wav Pre-gap length 0:00:01.26 Peak level 97.0 %
Track quality 100.0 %
Test CRC DF5893B9
Copy CRC DF5893B9
Accurately ripped (confidence 2) [3939AA45]
Copy OK

Track 8 Filename C:\EACrips\Gary Peacock and Ralph Towner - 1998 - A Closer View [FLAC]\08 - Toledo.wav Pre-gap length 0:00:03.09 Peak level 100.0 %
Track quality 100.0 %
Test CRC 6D2938A6
Copy CRC 6D2938A6
Accurately ripped (confidence 2) [00FEDBA5]
Copy OK

Track 9 Filename C:\EACrips\Gary Peacock and Ralph Towner - 1998 - A Closer View [FLAC]\09 - Amber Captive.wav Pre-gap length 0:00:02.20 Peak level 87.2 %
Track quality 100.0 %
Test CRC 088729BE
Copy CRC 088729BE
Accurately ripped (confidence 2) [E4286D1C]
Copy OK

Track 10 Filename C:\EACrips\Gary Peacock and Ralph Towner - 1998 - A Closer View [FLAC]\10 - Moor.wav Pre-gap length 0:00:02.17 Peak level 93.4 %
Track quality 100.0 %
Test CRC 218E1C11
Copy CRC 218E1C11
Accurately ripped (confidence 2) [327A88C4]
Copy OK

Track 11 Filename C:\EACrips\Gary Peacock and Ralph Towner - 1998 - A Closer View [FLAC]\11 - Beppo.wav Pre-gap length 0:00:02.36 Peak level 89.7 %
Track quality 100.0 %
Test CRC 6E89BA0E
Copy CRC 6E89BA0E
Accurately ripped (confidence 2) [48607FB2]
Copy OK

Track 12 Filename C:\EACrips\Gary Peacock and Ralph Towner - 1998 - A Closer View [FLAC]\12 - A Closer View.wav Pre-gap length 0:00:03.36 Peak level 84.7 %
Track quality 100.0 %
Test CRC 7CDB94A8
Copy CRC 7CDB94A8
Accurately ripped (confidence 2) [AECFA9F8]
Copy OK

All tracks accurately ripped

No errors occurred

End of status report

------
Analyzed: Ralph Towner & Gary Peacock / A Closer View
------

DR Peak RMS Duration Track
------
DR14 -2.95 dB -20.49 dB 3:29 01-Opalesque
DR12 -5.30 dB -24.26 dB 1:24 02-Viewpoint
DR14 -1.25 dB -20.47 dB 4:07 03-Mingusiana
DR11 -0.85 dB -15.47 dB 6:11 04-Creeper
DR11 -0.87 dB -16.31 dB 3:56 05-Infrared
DR13 -0.83 dB -18.23 dB 5:15 06-From Branch To Branch
DR12 -0.26 dB -15.32 dB 3:15 07-Postcard To Salta
DR15 0.00 dB -17.90 dB 6:21 08-Toledo
DR16 -1.19 dB -21.19 dB 4:18 09-Amber Captive
DR15 -0.59 dB -21.11 dB 5:02 10-Moor
DR13 -0.94 dB -16.81 dB 6:28 11-Beppo
DR13 -1.44 dB -19.58 dB 4:48 12-A Closer View
------

Number of tracks: 12
Official DR value: DR13

Samplerate: 44100 Hz
Channels: 2
Bits per sample: 16
Bitrate: 420 kbps
Codec: FLAC

http://i60.fastpic.ru/big/2015/0512/f1/f915524487f66a915f81b93a92863af1.jpg

http://i47.fastpic.ru/big/2015/0512/b9/e7b6cefff1d2a2f7d1c0c91487dd71b9.jpg

http://i59.fastpic.ru/big/2015/0512/39/ca5e2ea4b639df7b87bfbbe7ec698f39.jpg



DOWNLOAD LINKS:
Buy Premium To Support Me & Get Resumable Support & Max Speed


Links are Interchangeable - No Password - Single Extraction

Ralph Towner & Gary Peacock - A Closer View (1998) {ECM 1602} [Re-Up] Fast Download


Ad2

 
 
 
Dear visitor, you went to the site as an unregistered user. We encourage you to register or enter the site under your name.
 
   
 
 (Votes #: 0)