2013Zone For Latest Downloads

 
     
 
Legal Downloads » Music » VA - Die Hit Giganten - Best Of One Hit Wonder (2013) [3CD Box Set]
Menu
Home Applications
Games Movies
Music TV Shows
Torrents Graphics

Sitemap

RSS
 
Advanced Search
Last News
Site Info
Top Contributors:
  1    supper88 32766
  2    admin 32711
  3    Whisky 10080
  4    Shark_ 8911
  5    creativelivenew 8706
  6    whathesupa 2799
  7    candymypost 840
  8    hvnteam 629
  9    vuong87 3


Articles:
  This Hour: 0
  Today: 0
  This Month: 0
  All Time: 515501


Torrents:
  Today: 0
  Yesterday: 0
  All Time: 156676


Membership:
  Registered Today :0
  This Hour:0
  This Month:0
  Total:14
  Banned:1

{online}
{inform_torrent}
Friend:
Full Download Scripts
Torrent Download
Trend
Trend

Search In Site

Music : VA - Die Hit Giganten - Best Of One Hit Wonder (2013) [3CD Box Set]
 
http://i58.fastpic.ru/big/2015/0512/fd/85d1aac48c3e3d34641b319b849a84fd.jpg

VA - Die Hit Giganten - Best Of One Hit Wonder (2013)
3CD | EAC Rip | FLAC (Img) + Cue + Log ~ 1,65 Gb | MP3 CBR320 ~ 576 Mb
Covers Included (JPG, 300 dpi) | RAR 5% Recovery
Rock, Pop, R&B, Dance | Sony Music #88765413052

The best of one hit wonder from the German pop compilation series.

***************

http://i57.fastpic.ru/big/2015/0512/6e/2eded000eae4d477ea785cacbed9336e.jpg

Track List CD1:

01. Crazy Town - Butterfly [03:37]
02. Dante Thomas - Miss California [04:09]
03. Toploader - Dancing in the Moonlight [03:49]
04. Heroes del Silencio - Entre Dos Tierras [04:02]
05. OPM - Heaven Is a Halfpipe [04:18]
06. Spin Doctors - Two Princes [04:15]
07. Babylon Zoo - Spaceman [04:02]
08. The Dandy Warhols - Bohemian Like You [03:31]
09. Bell, Book & Candle - Rescue Me [03:24]
10. The Boo Radleys - Wake Up Boo! [03:08]
11. Fiction Faction - (Feels Like) Heaven [03:32]
12. The Romantics - Talking in Your Sleep [03:53]
13. The Outfield - Your Love [03:38]
14. Blind Date - Your Heart Keeps Burning [04:01]
15. Max Werner - Rain in May [03:34]
16. Nits - In the Dutch Mountains [03:28]
17. Karel Fialka - Hey Matthew [03:33]
18. Orange Blue - She's Got That Light [03:40]
19. Sinead O'Connor - Nothing Compares 2 U [05:10]
20. Soul Asylum - Runaway Train [04:24]

Exact Audio Copy V1.0 beta 3 from 29. August 2011

EAC extraction logfile from 25. April 2015, 18:10

Various Artists / Die Hit-Giganten - Best Of One Hit Wonder CD1

Used drive : PLEXTOR BD-R PX-B940SA Adapter: 5 ID: 0

Read mode : Secure
Utilize accurate stream : Yes
Defeat audio cache : Yes
Make use of C2 pointers : No

Read offset correction

: 667
Overread into Lead-In and Lead-Out : No
Fill up missing offset samples with silence : Yes
Delete leading and trailing silent blocks : No
Null samples used in CRC calculations : Yes
Used interface
: Installed external ASPI interface

Used output format : User Defined Encoder
Selected bitrate : 128 kBit/s
Quality : High
Add ID3 tag : Yes
Command line compressor : G:\Program Files (x86)\Exact Audio Copy\Flac\flac.exe
Additional command line options : -V -8 -T "Date=%year%" -T "Genre=%genre%" %source%

TOC of the extracted CD Track | Start | Length | Start sector | End sector
1 | 0:00.00 | 3:36.18 | 0 | 16217 2 | 3:36.18 | 4:08.43 | 16218 | 34860 3 | 7:44.61 | 3:48.20 | 34861 | 51980 4 | 11:33.06 | 4:01.41 | 51981 | 70096 5 | 15:34.47 | 4:17.66 | 70097 | 89437 6 | 19:52.38 | 4:14.02 | 89438 | 108489 7 | 24:06.40 | 4:01.67 | 108490 | 126631 8 | 28:08.32 | 3:30.46 | 126632 | 142427 9 | 31:39.03 | 3:23.51 | 142428 | 157703
10 | 35:02.54 | 3:07.13 | 157704 | 171741
11 | 38:09.67 | 3:31.28 | 171742 | 187594
12 | 41:41.20 | 3:52.01 | 187595 | 204995
13 | 45:33.21 | 3:37.27 | 204996 | 221297
14 | 49:10.48 | 4:00.49 | 221298 | 239346
15 | 53:11.22 | 3:33.11 | 239347 | 255332
16 | 56:44.33 | 3:27.02 | 255333 | 270859
17 | 60:11.35 | 3:32.05 | 270860 | 286764
18 | 63:43.40 | 3:39.02 | 286765 | 303191
19 | 67:22.42 | 5:09.33 | 303192 | 326399
20 | 72:32.00 | 4:23.03 | 326400 | 346127

Range status and errors

Selected range Filename D:\MUSIC\Various Artists - Die Hit-Giganten - Best Of One Hit Wonder CD1.wav Peak level 99.5 %
Extraction speed 5.3 X
Range quality 100.0 %
Test CRC D59D7C6E
Copy CRC D59D7C6E
Copy OK

No errors occurred


AccurateRip summary

Track 1 accurately ripped (confidence 8) [D313F0C6] (AR v2)
Track 2 accurately ripped (confidence 8) [EFF26D8B] (AR v2)
Track 3 accurately ripped (confidence 8) [EFB300C0] (AR v2)
Track 4 accurately ripped (confidence 8) [ABD829E7] (AR v2)
Track 5 accurately ripped (confidence 8) [45193344] (AR v2)
Track 6 accurately ripped (confidence 8) [15B18601] (AR v2)
Track 7 accurately ripped (confidence 9) [63636045] (AR v2)
Track 8 accurately ripped (confidence 8) 9F25500 (AR v2)
Track 9 accurately ripped (confidence 8) [2A7C3297] (AR v2)
Track 10 accurately ripped (confidence 8) [A0194188] (AR v2)
Track 11 accurately ripped (confidence 9) [27695A14] (AR v2)
Track 12 accurately ripped (confidence 9) [DC75A220] (AR v2)
Track 13 accurately ripped (confidence 8) [490499D1] (AR v2)
Track 14 accurately ripped (confidence 9) [AE397906] (AR v2)
Track 15 accurately ripped (confidence 8) [26254F17] (AR v2)
Track 16 accurately ripped (confidence 8) [CDE03855] (AR v2)
Track 17 accurately ripped (confidence 9) [C8C3C3F5] (AR v2)
Track 18 accurately ripped (confidence 8) [F966DDBA] (AR v2)
Track 19 accurately ripped (confidence 8) [4DB0D1E1] (AR v2)
Track 20 accurately ripped (confidence 8) [F6763A4A] (AR v2)

All tracks accurately ripped

End of status report

==== Log checksum 02917C0D12876164BEB659AE8789C0EBD69427A1734A5FAD06477F4A0ED9F0DB ====

foobar2000 1.2.6 / Dynamic Range Meter 1.1.1
log date: 2015-05-10 14:04:11

------
Analyzed: Various Artists / Die Hit-Giganten - Best Of One Hit Wonder CD1
------

DR Peak RMS Duration Track
------
DR7 -0.59 dB -8.64 dB 3:36 01-01. Crazy Town - Butterfly
DR8 -0.07 dB -9.46 dB 4:09 02-02. Dante Thomas - Miss California
DR8 -0.19 dB -9.28 dB 3:48 03-03. Toploader - Dancing in the Moonlight
DR7 -0.08 dB -8.09 dB 4:02 04-04. Heroes del Silencio - Entre Dos Tierras
DR8 -0.08 dB -10.66 dB 4:18 05-05. OPM - Heaven Is a Halfpipe
DR7 -0.08 dB -8.53 dB 4:14 06-06. Spin Doctors - Two Princes
DR7 -0.08 dB -9.15 dB 4:02 07-07. Babylon Zoo - Spaceman
DR8 -0.09 dB -8.67 dB 3:31 08-08. The Dandy Warhols - Bohemian Like You
DR6 -0.39 dB -9.55 dB 3:24 09-09. Bell, Book & Candle - Rescue Me
DR7 -0.08 dB -8.48 dB 3:07 10-10. The Boo Radleys - Wake Up Boo!
DR8 -0.08 dB -9.65 dB 3:31 11-11. Fiction Faction - (Feels Like) Heaven
DR8 -0.08 dB -9.63 dB 3:52 12-12. The Romantics - Talking in Your Sleep
DR8 -0.08 dB -9.58 dB 3:37 13-13. The Outfield - Your Love
DR9 -0.08 dB -10.35 dB 4:01 14-14. Blind Date - Your Heart Keeps Burning
DR8 -0.07 dB -8.94 dB 3:33 15-15. Max Werner - Rain in May
DR8 -0.08 dB -11.12 dB 3:27 16-16. Nits - In the Dutch Mountains
DR9 -0.08 dB -10.53 dB 3:32 17-17. Karel Fialka - Hey Matthew
DR7 -0.08 dB -9.21 dB 3:39 18-18. Orange Blue - She's Got That Light
DR7 -0.04 dB -10.69 dB 5:09 19-19. Sinead O'Connor - Nothing Compares 2 U
DR8 -0.08 dB -9.52 dB 4:23 20-20. Soul Asylum - Runaway Train
------

Number of tracks: 20
Official DR value: DR8

Samplerate: 44100 Hz
Channels: 2
Bits per sample: 16
Bitrate: 967 kbps
Codec: FLAC

[CUETools log; Date: 10.05.2015 14:04:14; Version: 2.1.5]
[CTDB TOCID: QneicO3z6vXiEajl2T4Awq2pSs0-] found.
Track | CTDB Status
1 | (16/16) Accurately ripped
2 | (16/16) Accurately ripped
3 | (16/16) Accurately ripped
4 | (16/16) Accurately ripped
5 | (16/16) Accurately ripped
6 | (16/16) Accurately ripped
7 | (16/16) Accurately ripped
8 | (16/16) Accurately ripped
9 | (16/16) Accurately ripped
10 | (16/16) Accurately ripped
11 | (16/16) Accurately ripped
12 | (16/16) Accurately ripped
13 | (16/16) Accurately ripped
14 | (16/16) Accurately ripped
15 | (16/16) Accurately ripped
16 | (16/16) Accurately ripped
17 | (16/16) Accurately ripped
18 | (16/16) Accurately ripped
19 | (16/16) Accurately ripped
20 | (16/16) Accurately ripped
[AccurateRip ID: 00371b71-032525a4-19120714] found.
Track [ CRC | V2 ] Status
01 [82ce668f|d313f0c6] (03+08/11) Accurately ripped
02 [44ecec22|eff26d8b] (03+08/11) Accurately ripped
03 [0b0e4565|efb300c0] (03+08/11) Accurately ripped
04 [61e9b64a|abd829e7] (03+08/11) Accurately ripped
05 [71f8ec94|45193344] (03+08/11) Accurately ripped
06 [63fc6b62|15b18601] (03+08/11) Accurately ripped
07 [a198b34f|63636045] (03+09/12) Accurately ripped
08 [5aa3da0a|b9f25500] (03+08/11) Accurately ripped
09 [6204f680|2a7c3297] (03+08/11) Accurately ripped
10 [606e7f38|a0194188] (03+08/11) Accurately ripped
11 [fd4d66f9|27695a14] (03+09/12) Accurately ripped
12 [d06ef8e4|dc75a220] (03+09/12) Accurately ripped
13 [ccc2424a|490499d1] (03+08/11) Accurately ripped
14 [5da6d53c|ae397906] (03+09/12) Accurately ripped
15 [02e2d177|26254f17] (03+08/11) Accurately ripped
16 [d8ae83f3|cde03855] (03+08/11) Accurately ripped
17 [16ec93e1|c8c3c3f5] (03+09/12) Accurately ripped
18 [d014a58b|f966ddba] (03+08/11) Accurately ripped
19 [a080b1ab|4db0d1e1] (03+08/11) Accurately ripped
20 [46c367c3|f6763a4a] (03+08/11) Accurately ripped

Track Peak [ CRC32 ] [W/O NULL] [ LOG ]
-- 99,5 [D59D7C6E] [E9E867D2] CRC32
01 93,4 [A1D14585] [3CE827E2]
02 99,2 [294D1B56] [2E183628]
03 97,8 7B941B5 [C4F196A2]
04 99,0 [C2973F0B] [761F25D5]
05 99,0 [2C520805] [2E3448F7]
06 99,0 [A497515F] [559D280C]
07 99,0 [1D7373F8] [913127BC]
08 98,9 [91478449] [046CFA81]
09 95,5 [1AC3EF46] [AB08AD24]
10 99,0 [7765DE8D] [1F2B8B22]
11 99,0 [AC3E9B7C] [4E704944]
12 99,0 [D85C7243] [C519B958]
13 99,0 [8C51FBBF] [F4961BA3]
14 99,0 [5D9D904F] [93EE7E56]
15 99,1 12459AD 17A95AD
16 99,0 [D60F02D0] [12F5B36B]
17 99,0 [93E9DBAC] 3C8167D
18 99,0 [3747EA74] [A9518237]
19 99,5 [A76B8BE3] [4004E2C2]
20 99,0 [A814E5E5] [7A5424F7]

Track List CD2:

01. 4 Non Blondes - What's up? [04:52]
02. Fool's Garden - Lemon tree [03:08]
03. Kate Winslet - What if [04:05]
04. Frank Popp Ensemble - Hip teens (don't wear blue jeans) [03:44]
05. Sniff 'n' The Tears - Driver's seat [03:56]
06. Stan Ridgway - Camouflage [05:02]
07. Lou Bega - Mambo No. 5 (a little bit of...) [03:40]
08. In-Grid - Tu es foutu [03:39]
09. Joe Dolce Music Theatre - Shaddap you face [03:13]
10. Catch - 25 years [03:54]
11. Gazebo - I like Chopin [04:08]
12. Desireless - Voyage voyage [04:22]
13. Guru Josh - Infinity [04:03]
14. Roger Sanchez - Another chance [03:28]
15. Olive - You're not alone [03:46]
16. Curtis Stigers - I wonder why [04:27]
17. Peacock Palace - Like a snake [03:54]
18. Creme 21 - Wann wird's mal wieder richtig Sommer [03:27]
19. Jeanette - Porque te vas [03:22]
20. Mr. Big - To be with you [03:28]

Exact Audio Copy V1.0 beta 3 from 29. August 2011

EAC extraction logfile from 25. April 2015, 18:50

Various Artists / Die Hit-Giganten - Best Of One Hit Wonder CD2

Used drive : PLEXTOR DVDR PX-860A Adapter: 4 ID: 0

Read mode : Secure
Utilize accurate stream : Yes
Defeat audio cache : Yes
Make use of C2 pointers : No

Read offset correction

: 96
Overread into Lead-In and Lead-Out : No
Fill up missing offset samples with silence : Yes
Delete leading and trailing silent blocks : No
Null samples used in CRC calculations : Yes
Used interface
: Installed external ASPI interface

Used output format : User Defined Encoder
Selected bitrate : 128 kBit/s
Quality : High
Add ID3 tag : Yes
Command line compressor : G:\Program Files (x86)\Exact Audio Copy\Flac\flac.exe
Additional command line options : -V -8 -T "Date=%year%" -T "Genre=%genre%" %source%

TOC of the extracted CD Track | Start | Length | Start sector | End sector
1 | 0:00.00 | 4:51.74 | 0 | 21898 2 | 4:51.74 | 3:07.18 | 21899 | 35941 3 | 7:59.17 | 4:04.54 | 35942 | 54295 4 | 12:03.71 | 3:43.51 | 54296 | 71071 5 | 15:47.47 | 3:55.41 | 71072 | 88737 6 | 19:43.13 | 5:01.36 | 88738 | 111348 7 | 24:44.49 | 3:39.44 | 111349 | 127817 8 | 28:24.18 | 3:38.38 | 127818 | 144205 9 | 32:02.56 | 3:12.54 | 144206 | 158659
10 | 35:15.35 | 3:53.73 | 158660 | 176207
11 | 39:09.33 | 4:07.13 | 176208 | 194745
12 | 43:16.46 | 4:21.52 | 194746 | 214372
13 | 47:38.23 | 4:02.20 | 214373 | 232542
14 | 51:40.43 | 3:27.72 | 232543 | 248139
15 | 55:08.40 | 3:45.53 | 248140 | 265067
16 | 58:54.18 | 4:26.09 | 265068 | 285026
17 | 63:20.27 | 3:53.37 | 285027 | 302538
18 | 67:13.64 | 3:26.11 | 302539 | 317999
19 | 70:40.00 | 3:21.52 | 318000 | 333126
20 | 74:01.52 | 3:27.73 | 333127 | 348724

Range status and errors

Selected range Filename D:\MUSIC\Various Artists - Die Hit-Giganten - Best Of One Hit Wonder CD2.wav Peak level 99.7 %
Extraction speed 8.4 X
Range quality 99.9 %
Test CRC D93D0C91
Copy CRC D93D0C91
Copy OK

No errors occurred


AccurateRip summary

Track 1 accurately ripped (confidence 8) [3A00BAD1] (AR v2)
Track 2 accurately ripped (confidence 8) [7B314E92] (AR v2)
Track 3 accurately ripped (confidence 8) [74796876] (AR v2)
Track 4 accurately ripped (confidence 8) [45890A14] (AR v2)
Track 5 accurately ripped (confidence 8) [96A12561] (AR v2)
Track 6 accurately ripped (confidence 8) [6BA21FFF] (AR v2)
Track 7 accurately ripped (confidence 8) [E3DBA14F] (AR v2)
Track 8 accurately ripped (confidence 8) [058A9815] (AR v2)
Track 9 accurately ripped (confidence 8) [D3C51BB5] (AR v2)
Track 10 accurately ripped (confidence 8) [E4CAFF4A] (AR v2)
Track 11 accurately ripped (confidence 8) [EC1DFE3A] (AR v2)
Track 12 accurately ripped (confidence 8) [C799D6AC] (AR v2)
Track 13 accurately ripped (confidence 8) [7A9D59AF] (AR v2)
Track 14 accurately ripped (confidence 8) [D2423E04] (AR v2)
Track 15 accurately ripped (confidence 8) [6E381357] (AR v2)
Track 16 accurately ripped (confidence 8) [3A3B9BAC] (AR v2)
Track 17 accurately ripped (confidence 8) [2D6E0FDA] (AR v2)
Track 18 accurately ripped (confidence 8) [7671F63B] (AR v2)
Track 19 accurately ripped (confidence 8) [89BA20C3] (AR v2)
Track 20 accurately ripped (confidence 8) [C088D7F7] (AR v2)

All tracks accurately ripped

End of status report

==== Log checksum 92D5297D132A62A788320779B266E4D4550F07EB51EABEE32A1B25AEB2385C26 ====

foobar2000 1.2.6 / Dynamic Range Meter 1.1.1
log date: 2015-05-10 14:04:36

------
Analyzed: 4 Non Blondes / Die Hit-Giganten - Best Of One Hit Wonder CD2 (1) Catch / Die Hit-Giganten - Best Of One Hit Wonder CD2 (2) Creme 21 / Die Hit-Giganten - Best Of One Hit Wonder CD2 (3)
------

DR Peak RMS Duration Track
------
DR8 -0.08 dB -10.52 dB 4:52 01-What's up?
DR9 -0.02 dB -10.71 dB 3:54 10-25 years
DR8 -0.08 dB -9.21 dB 3:26 18-Wann wird's mal wieder richtig Sommer
------

Number of tracks: 3
Official DR value: DR8

Samplerate: 44100 Hz
Channels: 2
Bits per sample: 16
Bitrate: 980 kbps
Codec: FLAC

------
Statistics for: 16-I wonder why
Number of samples: 11735892
Duration: 4:26
------ Left Right

Peak Value: -0.08 dB --- -0.08 dB
Avg RMS: -9.20 dB --- -9.57 dB
DR channel: 6.96 dB --- 7.20 dB
------

Official DR Value: DR7

Samplerate: 44100 Hz
Channels: 2
Bits per sample: 16
Bitrate: 980 kbps
Codec: FLAC

------
Statistics for: 12-Voyage voyage
Number of samples: 11540676
Duration: 4:22
------ Left Right

Peak Value: -0.08 dB --- -0.08 dB
Avg RMS: -9.00 dB --- -9.10 dB
DR channel: 7.40 dB --- 7.51 dB
------

Official DR Value: DR7

Samplerate: 44100 Hz
Channels: 2
Bits per sample: 16
Bitrate: 980 kbps
Codec: FLAC

------
Analyzed: Fool's Garden / Die Hit-Giganten - Best Of One Hit Wonder CD2 (1) Frank Popp Ensemble / Die Hit-Giganten - Best Of One Hit Wonder CD2 (2) Gazebo / Die Hit-Giganten - Best Of One Hit Wonder CD2 (3) Guru Josh / Die Hit-Giganten - Best Of One Hit Wonder CD2 (4)
------

DR Peak RMS Duration Track
------
DR7 -0.08 dB -8.98 dB 3:07 02-Lemon tree
DR8 -0.08 dB -9.49 dB 3:44 04-Hip teens (don't wear blue jeans)
DR6 -0.85 dB -9.84 dB 4:07 11-I like Chopin
DR8 -0.08 dB -10.77 dB 4:02 13-Infinity
------

Number of tracks: 4
Official DR value: DR7

Samplerate: 44100 Hz
Channels: 2
Bits per sample: 16
Bitrate: 980 kbps
Codec: FLAC

------
Analyzed: In-Grid / Die Hit-Giganten - Best Of One Hit Wonder CD2 (1) Jeanette / Die Hit-Giganten - Best Of One Hit Wonder CD2 (2)
------

DR Peak RMS Duration Track
------
DR7 -0.59 dB -8.74 dB 3:39 08-Tu es foutu
DR8 -0.05 dB -9.56 dB 3:22 19-Porque te vas
------

Number of tracks: 2
Official DR value: DR7

Samplerate: 44100 Hz
Channels: 2
Bits per sample: 16
Bitrate: 980 kbps
Codec: FLAC

------
Statistics for: 09-Shaddap you face
Number of samples: 8498952
Duration: 3:13
------ Left Right

Peak Value: -0.08 dB --- -0.08 dB
Avg RMS: -9.21 dB --- -9.24 dB
DR channel: 7.37 dB --- 7.48 dB
------

Official DR Value: DR7

Samplerate: 44100 Hz
Channels: 2
Bits per sample: 16
Bitrate: 980 kbps
Codec: FLAC

------
Analyzed: Kate Winslet / Die Hit-Giganten - Best Of One Hit Wonder CD2 (1) Lou Bega / Die Hit-Giganten - Best Of One Hit Wonder CD2 (2) Mr. Big / Die Hit-Giganten - Best Of One Hit Wonder CD2 (3)
------

DR Peak RMS Duration Track
------
DR8 -0.08 dB -10.47 dB 4:05 03-What if
DR7 -0.55 dB -8.61 dB 3:40 07-Mambo No. 5 (a little bit of...)
DR7 -0.08 dB -9.57 dB 3:28 20-To be with you
------

Number of tracks: 3
Official DR value: DR7

Samplerate: 44100 Hz
Channels: 2
Bits per sample: 16
Bitrate: 980 kbps
Codec: FLAC

------
Analyzed: Olive / Die Hit-Giganten - Best Of One Hit Wonder CD2 (1) Peacock Palace / Die Hit-Giganten - Best Of One Hit Wonder CD2 (2)
------

DR Peak RMS Duration Track
------
DR8 -0.02 dB -9.82 dB 3:46 15-You're not alone
DR8 -0.08 dB -9.39 dB 3:53 17-Like a snake
------

Number of tracks: 2
Official DR value: DR8

Samplerate: 44100 Hz
Channels: 2
Bits per sample: 16
Bitrate: 980 kbps
Codec: FLAC

------
Statistics for: 14-Another chance
Number of samples: 9171036
Duration: 3:28
------ Left Right

Peak Value: -0.08 dB --- -0.08 dB
Avg RMS: -9.24 dB --- -9.52 dB
DR channel: 7.28 dB --- 7.39 dB
------

Official DR Value: DR7

Samplerate: 44100 Hz
Channels: 2
Bits per sample: 16
Bitrate: 980 kbps
Codec: FLAC

------
Analyzed: Sniff 'n' The Tears / Die Hit-Giganten - Best Of One Hit Wonder CD2 (1) Stan Ridgway / Die Hit-Giganten - Best Of One Hit Wonder CD2 (2)
------

DR Peak RMS Duration Track
------
DR8 -0.08 dB -9.29 dB 3:56 05-Driver's seat
DR8 -0.08 dB -9.45 dB 5:01 06-Camouflage
------

Number of tracks: 2
Official DR value: DR8

Samplerate: 44100 Hz
Channels: 2
Bits per sample: 16
Bitrate: 980 kbps
Codec: FLAC

[CUETools log; Date: 10.05.2015 14:04:55; Version: 2.1.5]
[CTDB TOCID: c.3ogeQe0zRcqagFWZWtm5hQ2FI-] found.
Track | CTDB Status
1 | (18/18) Accurately ripped
2 | (18/18) Accurately ripped
3 | (18/18) Accurately ripped
4 | (18/18) Accurately ripped
5 | (18/18) Accurately ripped
6 | (18/18) Accurately ripped
7 | (18/18) Accurately ripped
8 | (18/18) Accurately ripped
9 | (18/18) Accurately ripped
10 | (18/18) Accurately ripped
11 | (18/18) Accurately ripped
12 | (18/18) Accurately ripped
13 | (18/18) Accurately ripped
14 | (18/18) Accurately ripped
15 | (18/18) Accurately ripped
16 | (18/18) Accurately ripped
17 | (18/18) Accurately ripped
18 | (18/18) Accurately ripped
19 | (18/18) Accurately ripped
20 | (18/18) Accurately ripped
[AccurateRip ID: 0038f3fc-034041fb-12122914] found.
Track [ CRC | V2 ] Status
01 [a1c31aa5|3a00bad1] (03+08/11) Accurately ripped
02 [c728b938|7b314e92] (03+08/11) Accurately ripped
03 [4448e397|74796876] (03+08/11) Accurately ripped
04 [4d5e717a|45890a14] (03+08/11) Accurately ripped
05 [82c5c648|96a12561] (03+08/11) Accurately ripped
06 [dcd96268|6ba21fff] (03+08/11) Accurately ripped
07 [3458f00c|e3dba14f] (03+08/11) Accurately ripped
08 [194db12f|058a9815] (03+08/11) Accurately ripped
09 [94fa87bc|d3c51bb5] (03+08/11) Accurately ripped
10 [e0d8a70c|e4caff4a] (03+08/11) Accurately ripped
11 [2c2c81c7|ec1dfe3a] (03+08/11) Accurately ripped
12 [393f740a|c799d6ac] (03+08/11) Accurately ripped
13 [9a1cda93|7a9d59af] (03+08/11) Accurately ripped
14 [dbb61352|d2423e04] (03+08/11) Accurately ripped
15 [714edc93|6e381357] (03+08/11) Accurately ripped
16 [959365cc|3a3b9bac] (03+08/11) Accurately ripped
17 [32d18aea|2d6e0fda] (03+08/11) Accurately ripped
18 [543b15bc|7671f63b] (03+08/11) Accurately ripped
19 [595b3191|89ba20c3] (03+08/11) Accurately ripped
20 [6dc9cc60|c088d7f7] (03+08/11) Accurately ripped

Track Peak [ CRC32 ] [W/O NULL] [ LOG ]
-- 99,7 [D93D0C91] [CB63D2F9] CRC32
01 99,0 [0D68B012] [E500B352]
02 99,0 [E4CB9B88] [10D4D628]
03 99,0 [7D922F5F] 0A9701F
04 99,0 [AE80E142] [3AAE2C3F]
05 99,0 [25265447] [8DAF606C]
06 99,0 2576BA8 [5FB9CE75]
07 93,8 [2476E992] [7311BE7D]
08 93,4 D954816 [32641C78]
09 99,0 [76FF3062] [71ECA345]
10 99,7 [1663A4FF] [E1E96589]
11 90,6 [37496852] [831F0617]
12 99,0 [3235784E] [CCB14ED8]
13 99,0 [4E62A8E1] [8B96C240]
14 99,0 [5B35354D] [5F96BC37]
15 99,7 [6EFDFE4F] [C9818FDB]
16 99,1 [41B0B4B8] [121FB082]
17 99,0 [5359FA44] [5F4200D0]
18 99,0 489EA28 [0B176C0B]
19 99,4 [3A1AC60F] [A6C41151]
20 99,0 [5FF905A2] [3C7CF800]

Track List CD3:

01. Cameo - Word Up [04:21]
02. Snow - Informer [04:30]
03. Eamon - Fuck It (I Don't Want You Back) [03:45]
04. The Underdog Project - Summer Jam [03:31]
05. Del Tha Funky Homosapien - Mistadobalina [04:17]
06. The Sugarhill Gang - Rapper's Delight [04:00]
07. Luniz feat. Michael Marshall - I Got 5 On It [04:07]
08. Nu Shooz - I Can't Wait [03:41]
09. Rock Steady Crew - (Hey You) Rock Steady Crew [03:47]
10. Videokids - Woodpeckers From Space [03:33]
11. Ellis, Beggs & Howard - Big Bubbles, No Troubles [03:32]
12. Caroline Loeb - C'est La Ouate [03:48]
13. Ini Kamoze - Here Comes The Hotstepper [04:10]
14. Eddie Murphy - Party All The Time [04:16]
15. The Flames - Everytime [03:00]
16. P.M. Sampson & Double Key - We Love To Love [03:44]
17. Will To Power - Baby, I Love Your Way/Freebird [04:07]
18. Ofra Haza - Im Nin Alu-2000 [03:36]
19. Raggio Di Luna - Comanchero [03:58]
20. Hot Butter - Popcorn [02:34]

Exact Audio Copy V1.0 beta 3 from 29. August 2011

EAC extraction logfile from 25. April 2015, 18:50

Various Artists / Die Hit-Giganten - Best Of One Hit Wonder CD3

Used drive : PLEXTOR BD-R PX-B940SA Adapter: 5 ID: 0

Read mode : Secure
Utilize accurate stream : Yes
Defeat audio cache : Yes
Make use of C2 pointers : No

Read offset correction

: 667
Overread into Lead-In and Lead-Out : No
Fill up missing offset samples with silence : Yes
Delete leading and trailing silent blocks : No
Null samples used in CRC calculations : Yes
Used interface
: Installed external ASPI interface

Used output format : User Defined Encoder
Selected bitrate : 128 kBit/s
Quality : High
Add ID3 tag : Yes
Command line compressor : G:\Program Files (x86)\Exact Audio Copy\Flac\flac.exe
Additional command line options : -V -8 -T "Date=%year%" -T "Genre=%genre%" %source%

TOC of the extracted CD Track | Start | Length | Start sector | End sector
1 | 0:00.00 | 4:20.06 | 0 | 19505 2 | 4:20.06 | 4:29.47 | 19506 | 39727 3 | 8:49.53 | 3:44.56 | 39728 | 56583 4 | 12:34.34 | 3:30.47 | 56584 | 72380 5 | 16:05.06 | 4:16.46 | 72381 | 91626 6 | 20:21.52 | 3:59.14 | 91627 | 109565 7 | 24:20.66 | 4:06.62 | 109566 | 128077 8 | 28:27.53 | 3:40.08 | 128078 | 144585 9 | 32:07.61 | 3:46.29 | 144586 | 161564
10 | 35:54.15 | 3:32.68 | 161565 | 177532
11 | 39:27.08 | 3:31.61 | 177533 | 193418
12 | 42:58.69 | 3:47.08 | 193419 | 210451
13 | 46:46.02 | 4:09.69 | 210452 | 229195
14 | 50:55.71 | 4:15.02 | 229196 | 248322
15 | 55:10.73 | 2:59.70 | 248323 | 261817
16 | 58:10.68 | 3:43.26 | 261818 | 278568
17 | 61:54.19 | 4:06.55 | 278569 | 297073
18 | 66:00.74 | 3:35.63 | 297074 | 313261
19 | 69:36.62 | 3:57.33 | 313262 | 331069
20 | 73:34.20 | 2:33.01 | 331070 | 342545

Range status and errors

Selected range Filename D:\MUSIC\Various Artists - Die Hit-Giganten - Best Of One Hit Wonder CD3.wav Peak level 99.6 %
Extraction speed 5.2 X
Range quality 99.9 %
Test CRC 5D954E58
Copy CRC 5D954E58
Copy OK

No errors occurred


AccurateRip summary

Track 1 accurately ripped (confidence 7) [268B7BF0] (AR v2)
Track 2 accurately ripped (confidence 7) [64D19E82] (AR v2)
Track 3 accurately ripped (confidence 7) [5D411950] (AR v2)
Track 4 accurately ripped (confidence 7) [29F07E2A] (AR v2)
Track 5 accurately ripped (confidence 7) FE8E9E7 (AR v2)
Track 6 accurately ripped (confidence 7) BF1EC3A (AR v2)
Track 7 accurately ripped (confidence 7) [795065C3] (AR v2)
Track 8 accurately ripped (confidence 7) [F68371D2] (AR v2)
Track 9 accurately ripped (confidence 7) [2CC9BA32] (AR v2)
Track 10 accurately ripped (confidence 7) [FC142A20] (AR v2)
Track 11 accurately ripped (confidence 7) [D7D5A56D] (AR v2)
Track 12 accurately ripped (confidence 7) [AB694A41] (AR v2)
Track 13 accurately ripped (confidence 7) [8397C911] (AR v2)
Track 14 accurately ripped (confidence 7) [715D4202] (AR v2)
Track 15 accurately ripped (confidence 7) [C5CE1387] (AR v2)
Track 16 accurately ripped (confidence 7) [10DF81D4] (AR v2)
Track 17 accurately ripped (confidence 7) [E47EBB83] (AR v2)
Track 18 accurately ripped (confidence 7) [3B847359] (AR v2)
Track 19 accurately ripped (confidence 7) [55938F84] (AR v2)
Track 20 accurately ripped (confidence 7) [E38A174B] (AR v2)

All tracks accurately ripped

End of status report

==== Log checksum 8C0003CD634D3D43CC5C510F9BB824894D6F6275943710189C616F44B205B436 ====

foobar2000 1.2.6 / Dynamic Range Meter 1.1.1
log date: 2015-05-10 14:05:16

------
Analyzed: Cameo / Die Hit-Giganten - Best Of One Hit Wonder CD3 (1) Caroline Loeb / Die Hit-Giganten - Best Of One Hit Wonder CD3 (2)
------

DR Peak RMS Duration Track
------
DR9 -0.03 dB -10.46 dB 4:20 01-Word Up
DR7 -0.09 dB -9.29 dB 3:47 12-C'est La Ouate
------

Number of tracks: 2
Official DR value: DR8

Samplerate: 44100 Hz
Channels: 2
Bits per sample: 16
Bitrate: 944 kbps
Codec: FLAC

------
Statistics for: 05-Mistadobalina
Number of samples: 11316648
Duration: 4:17
------ Left Right

Peak Value: -0.08 dB --- -0.08 dB
Avg RMS: -10.99 dB --- -11.46 dB
DR channel: 9.66 dB --- 10.15 dB
------

Official DR Value: DR10

Samplerate: 44100 Hz
Channels: 2
Bits per sample: 16
Bitrate: 944 kbps
Codec: FLAC

------
Analyzed: Eamon / Die Hit-Giganten - Best Of One Hit Wonder CD3 (1) Eddie Murphy / Die Hit-Giganten - Best Of One Hit Wonder CD3 (2)
------

DR Peak RMS Duration Track
------
DR8 -0.07 dB -10.13 dB 3:45 03-Fuck It (I Don't Want You Back)
DR8 -0.08 dB -10.21 dB 4:15 14-Party All The Time
------

Number of tracks: 2
Official DR value: DR8

Samplerate: 44100 Hz
Channels: 2
Bits per sample: 16
Bitrate: 944 kbps
Codec: FLAC

------
Analyzed: Ellis, Beggs & Howard / Die Hit-Giganten - Best Of One Hit Wonder CD3 (1) Hot Butter / Die Hit-Giganten - Best Of One Hit Wonder CD3 (2)
------

DR Peak RMS Duration Track
------
DR8 -0.08 dB -9.33 dB 3:32 11-Big Bubbles, No Troubles
DR9 -0.08 dB -11.34 dB 2:33 20-Popcorn
------

Number of tracks: 2
Official DR value: DR9

Samplerate: 44100 Hz
Channels: 2
Bits per sample: 16
Bitrate: 944 kbps
Codec: FLAC

------
Statistics for: 13-Here Comes The Hotstepper
Number of samples: 11021472
Duration: 4:10
------ Left Right

Peak Value: -0.08 dB --- -0.08 dB
Avg RMS: -10.10 dB --- -10.09 dB
DR channel: 8.79 dB --- 8.76 dB
------

Official DR Value: DR9

Samplerate: 44100 Hz
Channels: 2
Bits per sample: 16
Bitrate: 944 kbps
Codec: FLAC

------
Analyzed: Luniz feat. Michael Marshall / Die Hit-Giganten - Best Of One Hit Wonder CD3 (1) Nu Shooz / Die Hit-Giganten - Best Of One Hit Wonder CD3 (2) Ofra Haza / Die Hit-Giganten - Best Of One Hit Wonder CD3 (3)
------

DR Peak RMS Duration Track
------
DR8 -0.08 dB -8.77 dB 4:07 07-I Got 5 On It
DR8 -0.08 dB -9.30 dB 3:40 08-I Can't Wait
DR7 -0.08 dB -9.82 dB 3:36 18-Im Nin Alu-2000
------

Number of tracks: 3
Official DR value: DR8

Samplerate: 44100 Hz
Channels: 2
Bits per sample: 16
Bitrate: 944 kbps
Codec: FLAC

------
Analyzed: P.M. Sampson & Double Key / Die Hit-Giganten - Best Of One Hit Wonder CD3 (1) Raggio Di Luna / Die Hit-Giganten - Best Of One Hit Wonder CD3 (2)
------

DR Peak RMS Duration Track
------
DR8 -0.08 dB -9.41 dB 3:43 16-We Love To Love
DR9 -0.08 dB -10.36 dB 3:57 19-Comanchero
------

Number of tracks: 2
Official DR value: DR8

Samplerate: 44100 Hz
Channels: 2
Bits per sample: 16
Bitrate: 944 kbps
Codec: FLAC

------
Statistics for: 09-(Hey You) Rock Steady Crew
Number of samples: 9983652
Duration: 3:46
------ Left Right

Peak Value: -0.08 dB --- -0.03 dB
Avg RMS: -8.96 dB --- -8.88 dB
DR channel: 7.69 dB --- 7.62 dB
------

Official DR Value: DR8

Samplerate: 44100 Hz
Channels: 2
Bits per sample: 16
Bitrate: 944 kbps
Codec: FLAC

------
Analyzed: Snow / Die Hit-Giganten - Best Of One Hit Wonder CD3 (1) The Flames / Die Hit-Giganten - Best Of One Hit Wonder CD3 (2)
------

DR Peak RMS Duration Track
------
DR8 -0.08 dB -9.09 dB 4:30 02-Informer
DR8 -0.08 dB -9.51 dB 3:00 15-Everytime
------

Number of tracks: 2
Official DR value: DR8

Samplerate: 44100 Hz
Channels: 2
Bits per sample: 16
Bitrate: 944 kbps
Codec: FLAC

------
Statistics for: 06-Rapper's Delight
Number of samples: 10548132
Duration: 3:59
------ Left Right

Peak Value: -0.08 dB --- -0.08 dB
Avg RMS: -8.74 dB --- -9.51 dB
DR channel: 7.76 dB --- 8.44 dB
------

Official DR Value: DR8

Samplerate: 44100 Hz
Channels: 2
Bits per sample: 16
Bitrate: 944 kbps
Codec: FLAC

------
Analyzed: The Underdog Project / Die Hit-Giganten - Best Of One Hit Wonder CD3 (1) Videokids / Die Hit-Giganten - Best Of One Hit Wonder CD3 (2) Will To Power / Die Hit-Giganten - Best Of One Hit Wonder CD3 (3)
------

DR Peak RMS Duration Track
------
DR8 -0.08 dB -9.64 dB 3:31 04-Summer Jam
DR7 -0.08 dB -8.74 dB 3:33 10-Woodpeckers From Space
DR7 -0.05 dB -9.73 dB 4:07 17-Baby, I Love Your Way/Freebird
------

Number of tracks: 3
Official DR value: DR8

Samplerate: 44100 Hz
Channels: 2
Bits per sample: 16
Bitrate: 944 kbps
Codec: FLAC

[CUETools log; Date: 10.05.2015 14:05:36; Version: 2.1.5]
[CTDB TOCID: Qn7IR0RutDo6nJ5bGPjNFlPXWkQ-] found.
Track | CTDB Status
1 | (16/16) Accurately ripped
2 | (16/16) Accurately ripped
3 | (16/16) Accurately ripped
4 | (16/16) Accurately ripped
5 | (16/16) Accurately ripped
6 | (16/16) Accurately ripped
7 | (16/16) Accurately ripped
8 | (16/16) Accurately ripped
9 | (16/16) Accurately ripped
10 | (16/16) Accurately ripped
11 | (16/16) Accurately ripped
12 | (16/16) Accurately ripped
13 | (16/16) Accurately ripped
14 | (16/16) Accurately ripped
15 | (16/16) Accurately ripped
16 | (16/16) Accurately ripped
17 | (16/16) Accurately ripped
18 | (16/16) Accurately ripped
19 | (16/16) Accurately ripped
20 | (16/16) Accurately ripped
[AccurateRip ID: 00389003-0337c6bb-2e11d714] found.
Track [ CRC | V2 ] Status
01 [75a5917f|268b7bf0] (03+07/10) Accurately ripped
02 [c9ae6f15|64d19e82] (03+07/10) Accurately ripped
03 [53f4673b|5d411950] (03+07/10) Accurately ripped
04 [0be101d6|29f07e2a] (03+07/10) Accurately ripped
05 [20b5aa7c|bfe8e9e7] (03+07/10) Accurately ripped
06 [24689f37|bbf1ec3a] (03+07/10) Accurately ripped
07 [60d734b0|795065c3] (03+07/10) Accurately ripped
08 [01bb3a89|f68371d2] (03+07/10) Accurately ripped
09 [3475c5a4|2cc9ba32] (03+07/10) Accurately ripped
10 [6f7af25b|fc142a20] (03+07/10) Accurately ripped
11 [fe6ac86b|d7d5a56d] (03+07/10) Accurately ripped
12 [95dc342c|ab694a41] (03+07/10) Accurately ripped
13 [979ab67e|8397c911] (03+07/10) Accurately ripped
14 [3116a8e9|715d4202] (03+07/10) Accurately ripped
15 [3ea0d4e3|c5ce1387] (03+07/10) Accurately ripped
16 [e38109c7|10df81d4] (03+07/10) Accurately ripped
17 [14e3c7d4|e47ebb83] (03+07/10) Accurately ripped
18 [59c81a3d|3b847359] (03+07/10) Accurately ripped
19 [e3cb2352|55938f84] (03+07/10) Accurately ripped
20 [ec745ba4|e38a174b] (03+07/10) Accurately ripped

Track Peak [ CRC32 ] [W/O NULL] [ LOG ]
-- 99,6 [5D954E58] [1434A88D] CRC32
01 99,6 [7EE8E93C] [DCDF4D6F]
02 99,0 [23EB6DAC] [3AB661E8]
03 99,1 0045D33 [38F7AE7D]
04 99,0 [AF82F292] [CBD968CF]
05 99,0 [4F0EF53E] [7D424A6D]
06 99,0 [C1600085] [9D703AA4]
07 99,0 [CBA66F60] 2E35BB4
08 99,0 [9964E877] [7894ABB0]
09 99,6 [59BA5EDA] [88CA6179]
10 99,0 [7253F63F] [5D59658D]
11 99,0 [7E422F8E] [43B0CEB3]
12 99,0 [D43C25DD] [7F1F4B6B]
13 99,0 68294AE [8153BE9E]
14 99,0 [01312170] [CAE2D588]
15 99,0 158CD10 [70BE2791]
16 99,0 [1B50DAE5] [536C5B05]
17 99,4 [76A2B549] 8AC5324
18 99,0 [E9B7040D] [023A5332]
19 99,0 [1202EE6B] [FA79A842]
20 99,0 [D72646B0] [A2377861]

http://i47.fastpic.ru/big/2015/0512/be/a3c2ad7330bc0cb08324fb7d2c160fbe.jpg


DOWNLOAD LINKS:
Buy Premium To Support Me & Get Resumable Support & Max Speed


Links are Interchangeable - No Password - Single Extraction

VA - Die Hit Giganten - Best Of One Hit Wonder (2013) [3CD Box Set] Fast Download



 
 
 
Dear visitor, you went to the site as an unregistered user. We encourage you to register or enter the site under your name.
 
   
 
 (Votes #: 0)