2013Zone For Latest Downloads

 
     
 
Legal Downloads » Music » The Rolling Stones - Rewind (1971-1984) [1985, Toshiba EMI CP35-5021]
Menu
Home Applications
Games Movies
Music TV Shows
Torrents Graphics

Sitemap

RSS
 
Advanced Search
Last News
Site Info
Top Contributors:
  1    supper88 32766
  2    admin 32671
  3    Whisky 10080
  4    Shark_ 8911
  5    creativelivenew 8706
  6    whathesupa 2799
  7    candymypost 840
  8    hvnteam 629
  9    vuong87 3


Articles:
  This Hour: 20
  Today: 20
  This Month: 78
  All Time: 515636


Torrents:
  Today: 0
  Yesterday: 0
  All Time: 156702


Membership:
  Registered Today :0
  This Hour:0
  This Month:0
  Total:14
  Banned:1

{online}
{inform_torrent}
Friend:
We Recomend
Trend
Trend
Ad1

Search In Site

Music : The Rolling Stones - Rewind (1971-1984) [1985, Toshiba EMI CP35-5021]
 
http://i47.fastpic.ru/big/2015/0512/f0/d83b9a40f5309c42accc9c8218b459f0.jpg

The Rolling Stones - Rewind (1971-1984)
EAC | Flac(Image) + Cue + Log & MP3 CBR 320Kbps
RSR / Toshiba EMI CP35-5021 | Japan | ~ 303 or 122 Mb | Scans Included
Classic Rock / Pop Rock / Rock & Roll

"Once simply viewed as a ramshackle overview of the Rolling Stones' decidedly uneven career throughout the '70s and into the early '80s, Rewind (1971-1984), ironically enough, is now also considered something of a collector's item since going out of print..."


Tracklist:

1. Brown Sugar (3:49)
2. Undercover Of The Night (4:33)
3. Start Me Up (3:33)
4. Tumbling Dice (3:37)
5. It's Only Rock'n'Roll (But I Like It) (5:08)
6. She So Cold (4:12)
7. Miss You (4:45)
8. Beast Of Burden (4:27)
9. Fool To Cry (5:06)
10. Waiting On A Friend (4:34)
11. Angie (4:31)
12. Respectable (3:09)

Exact Audio Copy V1.0 beta 3 from 29. August 2011

EAC extraction logfile from 15. May 2013, 16:29

The Rolling Stones / Rewind (1971-1984) [CP35-5021]

Used drive : HL-DT-STDVD+-RW GH50N Adapter: 0 ID: 1

Read mode : Secure
Utilize accurate stream : Yes
Defeat audio cache : Yes
Make use of C2 pointers : No

Read offset correction

: 667
Overread into Lead-In and Lead-Out : No
Fill up missing offset samples with silence : Yes
Delete leading and trailing silent blocks : No
Null samples used in CRC calculations : Yes
Used interface
: Native Win32 interface for Win NT & 2000

Used output format : User Defined Encoder
Selected bitrate : 768 kBit/s
Quality : High
Add ID3 tag : No
Command line compressor : C:\Program Files (x86)\Exact Audio Copy\FLAC\FLAC.EXE
Additional command line options : -V -8 -T "Date=%year%" -T "Genre=%genre%" %source%

TOC of the extracted CD Track | Start | Length | Start sector | End sector
1 | 0:00.00 | 3:51.25 | 0 | 17349 2 | 3:51.25 | 4:34.22 | 17350 | 37921 3 | 8:25.47 | 3:35.10 | 37922 | 54056 4 | 12:00.57 | 3:41.30 | 54057 | 70661 5 | 15:42.12 | 5:09.68 | 70662 | 93904 6 | 20:52.05 | 4:13.42 | 93905 | 112921 7 | 25:05.47 | 4:48.08 | 112922 | 134529 8 | 29:53.55 | 4:27.50 | 134530 | 154604 9 | 34:21.30 | 5:06.62 | 154605 | 177616
10 | 39:28.17 | 4:38.23 | 177617 | 198489
11 | 44:06.40 | 4:34.20 | 198490 | 219059
12 | 48:40.60 | 3:08.55 | 219060 | 233214

Range status and errors

Selected range Filename C:\222\EMI\1985 - Rewind [CP35-5021]\The Rolling Stones - Rewind (1971-1984) [CP35-5021].wav Peak level 87.1 %
Extraction speed 2.0 X
Range quality 99.9 %
Test CRC 85F1E217
Copy CRC 85F1E217
Copy OK

No errors occurred


AccurateRip summary

Track 1 not present in database
Track 2 not present in database
Track 3 not present in database
Track 4 not present in database
Track 5 not present in database
Track 6 not present in database
Track 7 not present in database
Track 8 not present in database
Track 9 not present in database
Track 10 not present in database
Track 11 not present in database
Track 12 not present in database

None of the tracks are present in the AccurateRip database

End of status report

==== Log checksum 8B41068263E7028B38146A000B34F044BC433A4A14B1FCBE50E8D5409688F0EF ====

foobar2000 1.2.9 / Dynamic Range Meter 1.1.1
log date: 2015-05-11 01:56:48

------
Analyzed: The Rolling Stones / Rewind (1971-1984) [CP35-5021]
------

DR Peak RMS Duration Track
------
DR13 -1.79 dB -16.64 dB 3:51 01-Brown Sugar
DR13 -2.57 dB -17.86 dB 4:34 02-Undercover Of The Night
DR13 -1.20 dB -16.51 dB 3:35 03-Start Me Up
DR12 -2.43 dB -16.48 dB 3:41 04-Tumbling Dice
DR13 -3.18 dB -18.47 dB 5:10 05-It's Only Rock'n'Roll (But I Like It)
DR14 -3.19 dB -19.25 dB 4:14 06-She So Cold
DR14 -3.36 dB -20.29 dB 4:48 07-Miss You
DR14 -2.49 dB -19.15 dB 4:28 08-Beast Of Burden
DR12 -4.85 dB -21.06 dB 5:07 09-Fool To Cry
DR12 -3.45 dB -18.58 dB 4:38 10-Waiting On A Friend
DR13 -2.90 dB -19.80 dB 4:34 11-Angie
DR13 -3.54 dB -18.48 dB 3:09 12-Respectable
------

Number of tracks: 12
Official DR value: DR13

Samplerate: 44100 Hz
Channels: 2
Bits per sample: 16
Bitrate: 768 kbps
Codec: FLAC

[CUETools log; Date: 11.05.2015 1:56:58; Version: 2.1.4]
[CTDB TOCID: NHKZFCVnATr.ujW0PEwt.8xqioQ-] found.
Track | CTDB Status
1 | (3/3) Accurately ripped
2 | (3/3) Accurately ripped
3 | (3/3) Accurately ripped
4 | (3/3) Accurately ripped
5 | (3/3) Accurately ripped
6 | (3/3) Accurately ripped
7 | (3/3) Accurately ripped
8 | (3/3) Accurately ripped
9 | (3/3) Accurately ripped
10 | (3/3) Accurately ripped
11 | (3/3) Accurately ripped
12 | (3/3) Accurately ripped
[AccurateRip ID: 0016f44f-00d80f21-9b0c250c] found.
Track [ CRC | V2 ] Status
01 [8b179559|10e1a882] (0+4/4) Accurately ripped
02 [ea63d8ec|9772c5a6] (0+4/4) Accurately ripped
03 [4b0a2e11|04228020] (0+4/4) Accurately ripped
04 [3a23bded|81f551ff] (0+4/4) Accurately ripped
05 [05c924b1|eea4994e] (0+4/4) Accurately ripped
06 [9ff34a41|5bb01748] (0+4/4) Accurately ripped
07 [953e099f|a756e24e] (0+4/4) Accurately ripped
08 [ffbd6169|22190bc3] (0+4/4) Accurately ripped
09 [6e1bdf1c|ca323f66] (0+4/4) Accurately ripped
10 60f1e51|bd1c276c (0+4/4) Accurately ripped
11 [5ad51e07|4a2dce2f] (0+4/4) Accurately ripped
12 [ac80c086|01847728] (0+4/4) Accurately ripped

Track Peak [ CRC32 ] [W/O NULL] [ LOG ]
-- 87,1 [85F1E217] [C0ADCC71] CRC32
01 81,4 [16851BFD] [302EA928]
02 74,3 [8A8A6216] [7EAB3AD8]
03 87,1 [044C3E76] [D532580D]
04 75,5 [72EAB96E] [3A2E1F6E]
05 69,3 [155B10EC] [A5F88C1A]
06 69,2 [55A758EA] [CE553374]
07 67,9 [C39E77CB] [FF43D5A3]
08 75,0 [94232D41] [AA26E67F]
09 57,2 [1C9F2789] 8150424
10 67,1 [5BA17A49] [99CE7450]
11 71,6 [4F1DC182] [11E5AA7E]
12 66,5 [C388727B] [1827D16D]

http://i57.fastpic.ru/big/2015/0512/96/06e1037539f13145c7ad5f922e92fb96.jpg

DOWNLOAD LINKS:
Buy Premium To Support Me & Get Resumable Support & Max Speed


Links are Interchangeable - No Password - Single Extraction



Ad2

 
 
 
Dear visitor, you went to the site as an unregistered user. We encourage you to register or enter the site under your name.
 
   
 
 (Votes #: 0)