2013Zone For Latest Downloads

 
     
 
Legal Downloads » Music » Various Artists - Run To Paradise: Australian Pop Of The 80's Vol. 4 [2CD] (2012)
Menu
Home Applications
Games Movies
Music TV Shows
Torrents Graphics

Sitemap

RSS
 
Advanced Search
Last News
Site Info
Top Contributors:
  1    supper88 32766
  2    admin 32693
  3    Whisky 10080
  4    Shark_ 8911
  5    creativelivenew 8706
  6    whathesupa 2799
  7    candymypost 840
  8    hvnteam 629
  9    vuong87 3


Articles:
  This Hour: 0
  Today: 0
  This Month: 0
  All Time: 515561


Torrents:
  Today: 0
  Yesterday: 0
  All Time: 156684


Membership:
  Registered Today :0
  This Hour:0
  This Month:0
  Total:14
  Banned:1

{online}
{inform_torrent}
Friend:
We Recomend
Trend
Trend
Ad1

Search In Site

Music : Various Artists - Run To Paradise: Australian Pop Of The 80's Vol. 4 [2CD] (2012)
 
http://i58.fastpic.ru/big/2015/0512/2e/789e3b6b19bdc068359f4d44ae83292e.jpg

Various Artists - Run To Paradise: Australian Pop Of The 80's Vol. 4 [2CD] (2012)
Pop, Pop/Rock, Soft Rock, Electronic | EAC Rip | FLAC, Tracks+CUE + LOG + Scans-600dpi (JPEG) | 75:26 + 77:34 Min | 1,19 Gb
Label: Sony Music Entertainment Australia Pty Ltd. (AU) | Released: 2012, January 31

"
2012 two CD collection. The Australian Pop Series has become Australia's most comprehensive collection of heritage hit music ever issued on CD from our formative years, the 1960s, 1970s and 1980s. Again, like the earlier successful Volumes, this latest in the series is compiled by Brent James and features many quintessential Aussie hits and artists - many tracks highly sought after and in demand in recent years including some hits making their CD debut with all tracks selected from charts around Australia with the three decades represented again in this collection. Includes tracks from Olivia Newton-John, the Choirboys, Tim Finn, Mental As Anything, Hoodoo Gurus, Models, Eurogliders, the Angels, Men at Work, Mondo Rock and many others.
"

http://i48.fastpic.ru/big/2015/0512/e7/ab0d2d065ffc840c2ebfe241dbcb03e7.jpg


Release of this 2CD Set: 2012, January 31 [CD Sony Music Entertainment Australia Pty Ltd. (AU), Cat.# 88697988462 / EAN: 0886979884625]
This compilation © 2012 Sony Music Entertainment Australia Pty Ltd.
Distributed in Australia by Sony Music Entertainment Australia Pty Ltd.

Tracklist:

Disc One:

01. Choirboys - Run to Paradise
02. The Cockroaches - Double Shot (Of My Baby's Love)
03. Mi-Sex - People
04. 1927 - If I Could
05. Allniters - Hold on
06. Tim Finn - Through the Years
07. Solid Citizens - Singing in the Shower
08. Rick Springfield - Don't Talk to Strangers
09. Mental As Anything - Rock and Roll Music
10. Doug Parkinson - The Sun Ain't Gonna Shine Anymore
11. Hoodoo Gurus - Bittersweet
12. Swanee - Temporary Heartache
13. Models - Evolution
14. Broderick Smith's Big Combo - Faded Roses
15. Divinyls - Science Fiction
16. Black Sorrows - Chained to the Wheel
17. Globos - The Beat Goes on
18. Dear Enemy - The Good Life
19. Richard Clapton - Glory Road
20. John Farnham - A Touch of Paradise

Disc Two:

01. Eurogliders - Heaven (Must Be There)
02. Full Marks - Break Down the Walls
03. Uncanny X Men - 50 Years
04. Wa Wa Nee - Stimulation
05. Little River Band - Love Is a Bridge
06. Psuedo Echo - Don't Go
07. Jon English - Some People
08. The Angels - Eat City
09. Angry Anderson - Suddenly
10. Pat Wilson - Strong Love
11. James Reyne - Hammerhead
12. I'm Talking - Trust Me
13. Men at Work - Dr. Heckyl & Mr. Jive
14. Painters & Dockers - Nude School
15. Olivia Newton-John - Twist of Fate
16. Wide Boy Youth - Busy Bleeding
17. Mondo Rock - Come Said the Boy
18. Sharon O'Neil - How Do You Talk to Boys
19. Jo Jo Zep & the Falcons - Walk
20. The Reels - Shout And Deliver

Exact Audio Copy V1.0 beta 3 from 29. August 2011

EAC extraction logfile from 31. March 2015, 1:58

Various Artists / Australian Pop Of The 80's Vol 4 Run To Paradise Disc 1

Used drive : HL-DT-STDVDRAM GH24NS90 Adapter: 1 ID: 0

Read mode : Secure
Utilize accurate stream : Yes
Defeat audio cache : No
Make use of C2 pointers : Yes

Read offset correction

: 6
Overread into Lead-In and Lead-Out : No
Fill up missing offset samples with silence : Yes
Delete leading and trailing silent blocks : No
Null samples used in CRC calculations : Yes
Used interface
: Native Win32 interface for Win NT & 2000
Gap handling
: Appended to previous track

Used output format : User Defined Encoder
Selected bitrate : 1024 kBit/s
Quality : High
Add ID3 tag : No
Command line compressor : C:\Program Files (x86)\FLAC\metaflac.exe
Additional command line options : -8

TOC of the extracted CD Track | Start | Length | Start sector | End sector
1 | 0:00.00 | 4:10.44 | 0 | 18793 2 | 4:10.44 | 2:42.38 | 18794 | 30981 3 | 6:53.07 | 3:53.19 | 30982 | 48475 4 | 10:46.26 | 3:42.37 | 48476 | 65162 5 | 14:28.63 | 3:12.41 | 65163 | 79603 6 | 17:41.29 | 3:50.65 | 79604 | 96918 7 | 21:32.19 | 3:07.35 | 96919 | 110978 8 | 24:39.54 | 2:58.24 | 110979 | 124352 9 | 27:38.03 | 3:02.48 | 124353 | 138050
10 | 30:40.51 | 3:55.32 | 138051 | 155707
11 | 34:36.08 | 3:51.52 | 155708 | 173084
12 | 38:27.60 | 3:59.03 | 173085 | 191012
13 | 42:26.63 | 3:28.73 | 191013 | 206685
14 | 45:55.61 | 4:32.48 | 206686 | 227133
15 | 50:28.34 | 3:33.49 | 227134 | 243157
16 | 54:02.08 | 3:57.72 | 243158 | 261004
17 | 58:00.05 | 3:41.15 | 261005 | 277594
18 | 61:41.20 | 4:24.53 | 277595 | 297447
19 | 66:05.73 | 4:34.01 | 297448 | 317998
20 | 70:39.74 | 4:46.63 | 317999 | 339511

Track 1 Filename C:\Exact Audio Copy\01 Run To Paradise - Choirboys.wav Pre-gap length 0:00:02.00 Peak level 100.0 %
Extraction speed 4.1 X
Track quality 100.0 %
Test CRC 7B0AE4D5
Copy CRC 7B0AE4D5
Accurately ripped (confidence 5) [E7A05554] (AR v2)
Copy OK

Track 2 Filename C:\Exact Audio Copy\02 Double Shot (Of My Baby's Love) - The Cockroaches.wav Pre-gap length 0:00:01.74 Peak level 100.0 %
Extraction speed 4.4 X
Track quality 99.8 %
Test CRC 4AEA41E8
Copy CRC 4AEA41E8
Accurately ripped (confidence 5) [6C2494FC] (AR v2)
Copy OK

Track 3 Filename C:\Exact Audio Copy\03 People - Mi-Sex.wav Pre-gap length 0:00:01.74 Peak level 100.0 %
Extraction speed 4.7 X
Track quality 99.9 %
Test CRC 5C29FD67
Copy CRC 5C29FD67
Accurately ripped (confidence 5) [320B1D62] (AR v2)
Copy OK

Track 4 Filename C:\Exact Audio Copy\04 If I Could - 1927.wav Pre-gap length 0:00:01.74 Peak level 82.2 %
Extraction speed 5.3 X
Track quality 100.0 %
Test CRC F0E90C31
Copy CRC F0E90C31
Accurately ripped (confidence 5) [FBA536DF] (AR v2)
Copy OK

Track 5 Filename C:\Exact Audio Copy\05 Hold On - Allniters.wav Pre-gap length 0:00:01.74 Peak level 100.0 %
Extraction speed 5.6 X
Track quality 100.0 %
Test CRC 385553B3
Copy CRC 385553B3
Accurately ripped (confidence 5) [911CE0C0] (AR v2)
Copy OK

Track 6 Filename C:\Exact Audio Copy\06 Through The Years - Tim Finn.wav Pre-gap length 0:00:01.74 Peak level 100.0 %
Extraction speed 5.7 X
Track quality 100.0 %
Test CRC F8EBF13F
Copy CRC F8EBF13F
Accurately ripped (confidence 5) [60569D9A] (AR v2)
Copy OK

Track 7 Filename C:\Exact Audio Copy\07 Singing In The Shower - Solid Citizens.wav Pre-gap length 0:00:01.74 Peak level 84.1 %
Extraction speed 6.1 X
Track quality 100.0 %
Test CRC 9E0377B1
Copy CRC 9E0377B1
Accurately ripped (confidence 5) [DC899BB1] (AR v2)
Copy OK

Track 8 Filename C:\Exact Audio Copy\08 Don't Talk To Strangers - Rick Springfield.wav Pre-gap length 0:00:01.74 Peak level 100.0 %
Extraction speed 6.0 X
Track quality 100.0 %
Test CRC 14584D31
Copy CRC 14584D31
Accurately ripped (confidence 5) [3B361957] (AR v2)
Copy OK

Track 9 Filename C:\Exact Audio Copy\09 Rock 'n' Roll Music - Mental As Anything.wav Pre-gap length 0:00:01.74 Peak level 89.1 %
Extraction speed 6.6 X
Track quality 100.0 %
Test CRC 460BAA14
Copy CRC 460BAA14
Accurately ripped (confidence 5) [D17788BF] (AR v2)
Copy OK

Track 10 Filename C:\Exact Audio Copy\10 The Sun Ain't Gonna Shine Anymore - Doug Parkinson.wav Pre-gap length 0:00:01.74 Peak level 98.8 %
Extraction speed 6.6 X
Track quality 100.0 %
Test CRC 2F887A50
Copy CRC 2F887A50
Accurately ripped (confidence 5) [03766B05] (AR v2)
Copy OK

Track 11 Filename C:\Exact Audio Copy\11 Bittersweet - Hoodoo Gurus.wav Pre-gap length 0:00:01.74 Peak level 82.2 %
Extraction speed 7.1 X
Track quality 100.0 %
Test CRC 1791D771
Copy CRC 1791D771
Accurately ripped (confidence 5) [05707730] (AR v2)
Copy OK

Track 12 Filename C:\Exact Audio Copy\12 Temporary Heartache - Swanee.wav Pre-gap length 0:00:01.74 Peak level 100.0 %
Extraction speed 7.3 X
Track quality 100.0 %
Test CRC 73758208
Copy CRC 73758208
Accurately ripped (confidence 5) [9C44841F] (AR v2)
Copy OK

Track 13 Filename C:\Exact Audio Copy\13 Evolution - Models.wav Pre-gap length 0:00:01.74 Peak level 100.0 %
Extraction speed 7.2 X
Track quality 100.0 %
Test CRC 957824A8
Copy CRC 957824A8
Accurately ripped (confidence 5) [34C617E3] (AR v2)
Copy OK

Track 14 Filename C:\Exact Audio Copy\14 Faded Roses - Broderick Smith's Big Combo.wav Pre-gap length 0:00:01.74 Peak level 98.8 %
Extraction speed 7.5 X
Track quality 100.0 %
Test CRC 8461CE80
Copy CRC 8461CE80
Accurately ripped (confidence 5) [AA1F2114] (AR v2)
Copy OK

Track 15 Filename C:\Exact Audio Copy\15 Science Fiction - Divinyls.wav Pre-gap length 0:00:01.74 Peak level 100.0 %
Extraction speed 7.8 X
Track quality 100.0 %
Test CRC 2DD77B46
Copy CRC 2DD77B46
Accurately ripped (confidence 5) [09F2C113] (AR v2)
Copy OK

Track 16 Filename C:\Exact Audio Copy\16 Chained To The Wheel - The Black Sorrows.wav Pre-gap length 0:00:01.74 Peak level 91.1 %
Extraction speed 7.9 X
Track quality 100.0 %
Test CRC BEFFECE0
Copy CRC BEFFECE0
Accurately ripped (confidence 5) [5824E471] (AR v2)
Copy OK

Track 17 Filename C:\Exact Audio Copy\17 The Beat Goes On - Globos.wav Pre-gap length 0:00:01.74 Peak level 96.6 %
Extraction speed 8.5 X
Track quality 100.0 %
Test CRC F6352D8F
Copy CRC F6352D8F
Accurately ripped (confidence 5) [F450C6AB] (AR v2)
Copy OK

Track 18 Filename C:\Exact Audio Copy\18 Good Life - Dear Enemy.wav Pre-gap length 0:00:01.74 Peak level 100.0 %
Extraction speed 8.3 X
Track quality 100.0 %
Test CRC 45C8D02C
Copy CRC 45C8D02C
Accurately ripped (confidence 5) [4E62D151] (AR v2)
Copy OK

Track 19 Filename C:\Exact Audio Copy\19 Glory Road - Richard Clapton.wav Pre-gap length 0:00:01.74 Peak level 100.0 %
Extraction speed 8.5 X
Track quality 100.0 %
Test CRC 179F5B4B
Copy CRC 179F5B4B
Accurately ripped (confidence 5) [779E4B43] (AR v2)
Copy OK

Track 20 Filename C:\Exact Audio Copy\20 A Touch Of Paradise - John Farnham.wav Pre-gap length 0:00:01.74 Peak level 92.3 %
Extraction speed 9.2 X
Track quality 100.0 %
Test CRC 78CE20E9
Copy CRC 78CE20E9
Accurately ripped (confidence 6) [DAFE717E] (AR v2)
Copy OK

All tracks accurately ripped

No errors occurred

End of status report

==== Log checksum 0153B8525DA7D7C4810D2D6F60D12026E087EE891BC73540EFA6391A1F03EACF ====

Exact Audio Copy V1.0 beta 3 from 29. August 2011

EAC extraction logfile from 31. March 2015, 2:31

Various Artists / Australian Pop Of The 80's Vol 4 Run To Paradise Disc 2

Used drive : HL-DT-STDVDRAM GH24NS90 Adapter: 1 ID: 0

Read mode : Secure
Utilize accurate stream : Yes
Defeat audio cache : No
Make use of C2 pointers : Yes

Read offset correction

: 6
Overread into Lead-In and Lead-Out : No
Fill up missing offset samples with silence : Yes
Delete leading and trailing silent blocks : No
Null samples used in CRC calculations : Yes
Used interface
: Native Win32 interface for Win NT & 2000
Gap handling
: Appended to previous track

Used output format : User Defined Encoder
Selected bitrate : 1024 kBit/s
Quality : High
Add ID3 tag : No
Command line compressor : C:\Program Files (x86)\FLAC\metaflac.exe
Additional command line options : -8

TOC of the extracted CD Track | Start | Length | Start sector | End sector
1 | 0:00.00 | 3:41.62 | 0 | 16636 2 | 3:41.62 | 3:24.64 | 16637 | 32000 3 | 7:06.51 | 4:06.27 | 32001 | 50477 4 | 11:13.03 | 3:55.00 | 50478 | 68102 5 | 15:08.03 | 4:06.63 | 68103 | 86615 6 | 19:14.66 | 3:54.63 | 86616 | 104228 7 | 23:09.54 | 3:56.60 | 104229 | 121988 8 | 27:06.39 | 3:26.03 | 121989 | 137441 9 | 30:32.42 | 4:09.03 | 137442 | 156119
10 | 34:41.45 | 3:58.69 | 156120 | 174038
11 | 38:40.39 | 4:48.50 | 174039 | 195688
12 | 43:29.14 | 3:47.11 | 195689 | 212724
13 | 47:16.25 | 4:36.11 | 212725 | 233435
14 | 51:52.36 | 3:37.36 | 233436 | 249746
15 | 55:29.72 | 3:43.59 | 249747 | 266530
16 | 59:13.56 | 3:26.07 | 266531 | 281987
17 | 62:39.63 | 5:15.43 | 281988 | 305655
18 | 67:55.31 | 3:08.11 | 305656 | 319766
19 | 71:03.42 | 3:47.67 | 319767 | 336858
20 | 74:51.34 | 2:43.36 | 336859 | 349119

Track 1 Filename C:\Exact Audio Copy\01 Heaven (Must Be There) - Eurogliders.wav Pre-gap length 0:00:02.00 Peak level 100.0 %
Extraction speed 4.1 X
Track quality 100.0 %
Test CRC D260D73F
Copy CRC D260D73F
Accurately ripped (confidence 3) [0A4B9EBB] (AR v2)
Copy OK

Track 2 Filename C:\Exact Audio Copy\02 Break Down The Walls - Full Marks.wav Pre-gap length 0:00:01.74 Peak level 100.0 %
Extraction speed 4.4 X
Track quality 100.0 %
Test CRC D034690F
Copy CRC D034690F
Accurately ripped (confidence 3) [6DDEEA81] (AR v2)
Copy OK

Track 3 Filename C:\Exact Audio Copy\03 50 Years - Uncanny X-Men.wav Pre-gap length 0:00:01.74 Peak level 100.0 %
Extraction speed 5.0 X
Track quality 100.0 %
Test CRC 4D2A10C3
Copy CRC 4D2A10C3
Accurately ripped (confidence 3) [E0B65FF7] (AR v2)
Copy OK

Track 4 Filename C:\Exact Audio Copy\04 Stimulation - Wa Wa Nee.wav Pre-gap length 0:00:01.74 Peak level 100.0 %
Extraction speed 5.3 X
Track quality 100.0 %
Test CRC 35D43BB2
Copy CRC 35D43BB2
Accurately ripped (confidence 3) [F8BCB41F] (AR v2)
Copy OK

Track 5 Filename C:\Exact Audio Copy\05 Love Is A Bridge - Little River Band.wav Pre-gap length 0:00:01.74 Peak level 100.0 %
Extraction speed 5.3 X
Track quality 100.0 %
Test CRC 3EB9038A
Copy CRC 3EB9038A
Accurately ripped (confidence 3) [D9ECFA43] (AR v2)
Copy OK

Track 6 Filename C:\Exact Audio Copy\06 Don't Go - Pseudo Echo.wav Pre-gap length 0:00:01.74 Peak level 100.0 %
Extraction speed 5.7 X
Track quality 99.9 %
Test CRC 3B13C2E7
Copy CRC 3B13C2E7
Accurately ripped (confidence 3) [79D471D7] (AR v2)
Copy OK

Track 7 Filename C:\Exact Audio Copy\07 Some People (Have All The Fun) - Jon English.wav Pre-gap length 0:00:01.74 Peak level 87.1 %
Extraction speed 6.3 X
Track quality 100.0 %
Test CRC FEFA5E87
Copy CRC FEFA5E87
Accurately ripped (confidence 3) [4D0C0A8D] (AR v2)
Copy OK

Track 8 Filename C:\Exact Audio Copy\08 Eat City - The Angels.wav Pre-gap length 0:00:01.74 Peak level 75.0 %
Extraction speed 6.3 X
Track quality 100.0 %
Test CRC 0DC3BEA5
Copy CRC 0DC3BEA5
Accurately ripped (confidence 3) [C0BB4E3E] (AR v2)
Copy OK

Track 9 Filename C:\Exact Audio Copy\09 Suddenly - Angry Anderson.wav Pre-gap length 0:00:01.74 Peak level 100.0 %
Extraction speed 6.6 X
Track quality 100.0 %
Test CRC EEAAB41C
Copy CRC EEAAB41C
Accurately ripped (confidence 3) [06027ABC] (AR v2)
Copy OK

Track 10 Filename C:\Exact Audio Copy\10 Strong Love - Pat Wilson.wav Pre-gap length 0:00:02.00 Peak level 87.9 %
Extraction speed 6.8 X
Track quality 100.0 %
Test CRC 57F4F861
Copy CRC 57F4F861
Accurately ripped (confidence 3) [5D1E5143] (AR v2)
Copy OK

Track 11 Filename C:\Exact Audio Copy\11 Hammerhead - James Reyne.wav Pre-gap length 0:00:01.74 Peak level 91.2 %
Extraction speed 7.1 X
Track quality 100.0 %
Test CRC 9337A3B1
Copy CRC 9337A3B1
Accurately ripped (confidence 3) [867E1F36] (AR v2)
Copy OK

Track 12 Filename C:\Exact Audio Copy\12 Trust Me - I'm Talking.wav Pre-gap length 0:00:01.74 Peak level 88.1 %
Extraction speed 7.3 X
Track quality 100.0 %
Test CRC 525F54E0
Copy CRC 525F54E0
Accurately ripped (confidence 3) [FF5BBA06] (AR v2)
Copy OK

Track 13 Filename C:\Exact Audio Copy\13 Dr Jeckyll & Mr Jive - Men At Work.wav Pre-gap length 0:00:01.74 Peak level 100.0 %
Extraction speed 7.6 X
Track quality 100.0 %
Test CRC 11AF27D0
Copy CRC 11AF27D0
Accurately ripped (confidence 3) [C12A574E] (AR v2)
Copy OK

Track 14 Filename C:\Exact Audio Copy\14 Nude School - Painters & Dockers.wav Pre-gap length 0:00:01.74 Peak level 100.0 %
Extraction speed 7.8 X
Track quality 100.0 %
Test CRC 478E4B8E
Copy CRC 478E4B8E
Accurately ripped (confidence 3) [DB5F2CFF] (AR v2)
Copy OK

Track 15 Filename C:\Exact Audio Copy\15 Twist Of Fate - Olivia Newton-John.wav Pre-gap length 0:00:01.74 Peak level 87.3 %
Extraction speed 8.3 X
Track quality 100.0 %
Test CRC B61D97A4
Copy CRC B61D97A4
Accurately ripped (confidence 3) [A2CBCCF9] (AR v2)
Copy OK

Track 16 Filename C:\Exact Audio Copy\16 Busy Bleeding - Wide Boy Youth.wav Pre-gap length 0:00:01.74 Peak level 93.3 %
Extraction speed 8.0 X
Track quality 100.0 %
Test CRC 8E3AB8E9
Copy CRC 8E3AB8E9
Accurately ripped (confidence 3) [2D97D87D] (AR v2)
Copy OK

Track 17 Filename C:\Exact Audio Copy\17 Come Said The Boy - Mondo Rock.wav Pre-gap length 0:00:01.74 Peak level 83.1 %
Extraction speed 8.8 X
Track quality 100.0 %
Test CRC 0652A57D
Copy CRC 0652A57D
Accurately ripped (confidence 3) [969B2DFF] (AR v2)
Copy OK

Track 18 Filename C:\Exact Audio Copy\18 How Do You Talk To Boys - Sharon O'Neill.wav Pre-gap length 0:00:01.74 Peak level 100.0 %
Extraction speed 9.0 X
Track quality 100.0 %
Test CRC DE2610F1
Copy CRC DE2610F1
Accurately ripped (confidence 3) [35DC49EC] (AR v2)
Copy OK

Track 19 Filename C:\Exact Audio Copy\19 Walk On By - Jo Jo Zep & The Falcons.wav Pre-gap length 0:00:01.74 Peak level 93.3 %
Extraction speed 9.1 X
Track quality 100.0 %
Test CRC DDA4AD11
Copy CRC DDA4AD11
Accurately ripped (confidence 3) [A12FF42A] (AR v2)
Copy OK

Track 20 Filename C:\Exact Audio Copy\20 Shout And Deliver - The Reels.wav Pre-gap length 0:00:01.74 Peak level 81.2 %
Extraction speed 8.6 X
Track quality 99.8 %
Test CRC C1BE8BB2
Copy CRC C1BE8BB2
Accurately ripped (confidence 4) [6FFD7E0F] (AR v2)
Copy OK

All tracks accurately ripped

No errors occurred

End of status report

==== Log checksum 4AB8582B9A716C8180F9FC50CD18C7CAEC93F505291A3E9043FF77048EEF3F9C ====

foobar2000 1.3.7 / Dynamic Range Meter 1.1.1
log date: 2015-05-10 23:50:01

------
Analyzed: Various Artists / Australian Pop Of The 80's Vol 4 Run To Paradise
------

DR Peak RMS Duration Track
------
DR8 0.00 dB -10.68 dB 4:11 01-Choirboys
DR10 0.00 dB -10.65 dB 2:43 02-The Cockroaches
DR8 0.00 dB -9.78 dB 3:53 03-Mi-Sex
DR6 -1.70 dB -9.96 dB 3:42 04-1927
DR8 0.00 dB -8.52 dB 3:13 05-Allniters
DR9 0.00 dB -10.85 dB 3:51 06-Tim Finn
DR7 -1.50 dB -10.23 dB 3:07 07-Solid Citizens
DR9 0.00 dB -10.97 dB 2:58 08-Rick Springfield
DR7 -1.00 dB -9.83 dB 3:03 09-Mental As Anything
DR8 -0.10 dB -10.44 dB 3:55 10-Doug Parkinson
DR6 -1.70 dB -9.48 dB 3:52 11-Hoodoo Gurus
DR8 0.00 dB -10.44 dB 3:59 12-Swanee
DR9 0.00 dB -10.56 dB 3:29 13-Models
DR9 -0.10 dB -10.74 dB 4:33 14-Broderick Smith's Big Combo
DR9 0.00 dB -10.26 dB 3:34 15-Divinyls
DR8 -0.80 dB -10.25 dB 3:58 16-The Black Sorrows
DR9 -0.30 dB -10.51 dB 3:41 17-Globos
DR7 0.00 dB -9.48 dB 4:25 18-Dear Enemy
DR9 0.00 dB -11.82 dB 4:34 19-Richard Clapton
DR7 -0.69 dB -10.58 dB 4:47 20-John Farnham
------

Number of tracks: 20
Official DR value: DR8

Samplerate: 44100 Hz
Channels: 2
Bits per sample: 16
Bitrate: 905 kbps
Codec: FLAC

foobar2000 1.3.7 / Dynamic Range Meter 1.1.1
log date: 2015-05-10 23:51:05

------
Analyzed: Various Artists / Australian Pop Of The 80's Vol 4 Run To Paradise
------

DR Peak RMS Duration Track
------
DR9 0.00 dB -10.60 dB 3:42 01-Eurogliders
DR8 0.00 dB -9.72 dB 3:25 02-Full Marks
DR8 0.00 dB -9.75 dB 4:06 03 50 Years-Uncanny X-Men
DR10 0.00 dB -11.23 dB 3:55 04-Wa Wa Nee
DR8 0.00 dB -9.65 dB 4:07 05-Little River Band
DR9 0.00 dB -10.85 dB 3:55 06-Pseudo Echo
DR8 -1.20 dB -10.95 dB 3:57 07-Jon English
DR5 -2.49 dB -9.33 dB 3:26 08-The Angels
DR8 0.00 dB -10.16 dB 4:09 09-Angry Anderson
DR7 -1.11 dB -9.30 dB 3:59 10-Pat Wilson
DR7 -0.80 dB -9.62 dB 4:49 11-James Reyne
DR8 -1.10 dB -10.26 dB 3:47 12-I'm Talking
DR10 0.00 dB -11.52 dB 4:36 13-Men At Work
DR9 0.00 dB -10.77 dB 3:37 14-Painters & Dockers
DR8 -1.17 dB -11.11 dB 3:44 15-Olivia Newton-John
DR9 -0.60 dB -11.07 dB 3:26 16-Wide Boy Youth
DR6 -1.61 dB -10.02 dB 5:16 17-Mondo Rock
DR9 0.00 dB -10.23 dB 3:08 18-Sharon O'Neill
DR9 -0.60 dB -10.99 dB 3:48 19-Jo Jo Zep & The Falcons
DR7 -1.80 dB -10.23 dB 2:43 20-The Reels
------

Number of tracks: 20
Official DR value: DR8

Samplerate: 44100 Hz
Channels: 2
Bits per sample: 16
Bitrate: 1044 kbps
Codec: FLAC
DOWNLOAD LINKS:
Buy Premium To Support Me & Get Resumable Support & Max Speed


Links are Interchangeable - No Password - Single Extraction

Various Artists - Run To Paradise: Australian Pop Of The 80's Vol. 4 [2CD] (2012) Fast Download


Ad2

 
 
 
Dear visitor, you went to the site as an unregistered user. We encourage you to register or enter the site under your name.
 
   
 
 (Votes #: 0)