2013Zone For Latest Downloads

 
     
 
Legal Downloads » Music » Bob Dylan - Planet Waves (1974)
Menu
Home Applications
Games Movies
Music TV Shows
Torrents Graphics

Sitemap

RSS
 
Advanced Search
Last News
Site Info
Top Contributors:
  1    supper88 32766
  2    admin 32671
  3    Whisky 10080
  4    Shark_ 8911
  5    creativelivenew 8706
  6    whathesupa 2799
  7    candymypost 840
  8    hvnteam 629
  9    vuong87 3


Articles:
  This Hour: 20
  Today: 20
  This Month: 58
  All Time: 515616


Torrents:
  Today: 20
  Yesterday: 0
  All Time: 156702


Membership:
  Registered Today :0
  This Hour:0
  This Month:0
  Total:14
  Banned:1

{online}
{inform_torrent}
Friend:
We Recomend
Trend
Trend
Ad1

Search In Site

Music : Bob Dylan - Planet Waves (1974)
 
http://i47.fastpic.ru/big/2015/0512/d9/2643952df14287302421147d5488fdd9.jpg

Bob Dylan - Planet Waves (1974)
Rock | 1cd | EAC Rip | Flac + Cue + Log | covers
Columbia 512356 2 | rem: 2003 | 320Mb

Reteaming with the Band, Bob Dylan winds up with an album that recalls New Morning more than The Basement Tapes, since Planet Waves is given to a relaxed intimate tone -- all the more appropriate for a collection of modest songs about domestic life. As such, it may seem a little anticlimactic since it has none of the wildness of the best Dylan and Band music of the '60s -- just an approximation of the homespun rusticness. Considering that the record was knocked out in the course of three days, its unassuming nature shouldn't be a surprise, and sometimes it's as much a flaw as a virtue, since there are several cuts that float into the ether.
Still, it is a virtue in places, as there are moments -- "On a Night Like This," "Something There Is About You," the lovely "Forever Young" -- where it just gels, almost making the diffuse nature of the rest of the record acceptable. ~Allmusic

Track listing
01. On A Night Like This (2:58)
02. Going, Going, Gone (3:27)
03. Tough Mama (4:17)
04. Hazel (2:50)
05. Something There Is About You (4:45)
06. Forever Young (4:58)
07. Forever Young {Continued} (2:49)
08. Dirge (5:36)
09. You Angel You (2:54)
10. Never Say Goodbye (2:54)
11. Wedding Song (4:42)
~ (42:11)

Personnel
- Bob Dylan - guitar, harmonica, vocals
- Rick Danko - bass guitar
- Levon Helm - drums
- Garth Hudson - organ
- Richard Manuel - piano, drums
- Robbie Robertson - guitars

Exact Audio Copy V0.99 prebeta 5 from 4. May 2009

EAC extraction logfile from 27. April 2013, 18:06

Bob Dylan / Planet Waves

Used drive : PLEXTOR DVDR PX-L890SA Adapter: 1 ID: 0

Read mode : Secure
Utilize accurate stream : Yes
Defeat audio cache : Yes
Make use of C2 pointers : No

Read offset correction

: 6
Overread into Lead-In and Lead-Out : No
Fill up missing offset samples with silence : Yes
Delete leading and trailing silent blocks : No
Null samples used in CRC calculations : Yes
Used interface
: Native Win32 interface for Win NT & 2000

Used output format : User Defined Encoder
Selected bitrate : 768 kBit/s
Quality : High
Add ID3 tag : No
Command line compressor : d:\Program Files\Exact Audio Copy\FLAC\FLAC.EXE
Additional command line options : -T "DATE=%y" -T "GENRE=%m" -8 -V %s

TOC of the extracted CD Track | Start | Length | Start sector | End sector
1 | 0:00.00 | 2:57.52 | 0 | 13326 2 | 2:57.52 | 3:27.25 | 13327 | 28876 3 | 6:25.02 | 4:17.10 | 28877 | 48161 4 | 10:42.12 | 2:50.10 | 48162 | 60921 5 | 13:32.22 | 4:45.10 | 60922 | 82306 6 | 18:17.32 | 4:57.45 | 82307 | 104626 7 | 23:15.02 | 2:49.10 | 104627 | 117311 8 | 26:04.12 | 5:36.00 | 117312 | 142511 9 | 31:40.12 | 2:54.00 | 142512 | 155561
10 | 34:34.12 | 2:54.30 | 155562 | 168641
11 | 37:28.42 | 4:42.23 | 168642 | 189814

Range status and errors

Selected range Filename H:\MUSIC\COLLECTION\Bob Dylan\1973 Planet Waves\Bob Dylan - Planet Waves.wav Peak level 99.8 %
Range quality 100.0 %
Test CRC 7EAA805A
Copy CRC 7EAA805A
Copy OK

No errors occurred


AccurateRip summary

Track 1 cannot be verified as accurate (confidence 81) [E6F6B75B], AccurateRip returned [CF23116F]
Track 2 cannot be verified as accurate (confidence 112) [0A07955E], AccurateRip returned [2152DFAE]
Track 3 cannot be verified as accurate (confidence 111) [2041EE46], AccurateRip returned [69A5A2A8]
Track 4 cannot be verified as accurate (confidence 111) [9452916D], AccurateRip returned [68195740]
Track 5 cannot be verified as accurate (confidence 110) [5563F67F], AccurateRip returned [D03FC1B9]
Track 6 cannot be verified as accurate (confidence 110) [AAD74AD5], AccurateRip returned [3003D52D]
Track 7 cannot be verified as accurate (confidence 110) [5AD249E2], AccurateRip returned [2D65C55C]
Track 8 cannot be verified as accurate (confidence 110) [26A29C6C], AccurateRip returned [98662452]
Track 9 cannot be verified as accurate (confidence 109) [F8F3FD9D], AccurateRip returned [5E886509]
Track 10 cannot be verified as accurate (confidence 110) [9C4C5AC9], AccurateRip returned [35511ED2]
Track 11 cannot be verified as accurate (confidence 108) [4C81F924], AccurateRip returned [C5FFDBA5]

No tracks could be verified as accurate
You may have a different pressing from the one(s) in the database

End of status report

[CUETools log; Date: 04.05.2013 12:46:35; Version: 2.1.2a]
[CTDB TOCID: 6NJZEbj_shlkY.6rG4rCfb8GrwM-] found.[ CTDBID ] Status[6330d223] (089/165) Differs in 6 samples @00:00:41-00:00:42[9eb1e46f] (076/165) Accurately ripped
[AccurateRip ID: 0010f801-0094b7a5-9d09e20b] found.
Track [ CRC ] Status
01 [e6f6b75b] (000/201) No match but offset
02 [0a07955e] (000/202) No match but offset
03 [2041ee46] (000/203) No match but offset
04 [9452916d] (000/202) No match but offset
05 [5563f67f] (000/201) No match but offset
06 [aad74ad5] (000/201) No match but offset
07 [5ad249e2] (000/201) No match but offset
08 [26a29c6c] (000/201) No match but offset
09 [f8f3fd9d] (000/200) No match but offset
10 [9c4c5ac9] (000/201) No match but offset
11 [4c81f924] (000/196) No match but offset
AccurateRip v2:
01 [d7e53684] (002/201) Accurately ripped
02 [36d91f98] (002/202) Accurately ripped
03 [9f198f36] (002/203) Accurately ripped
04 [067bbcc2] (002/202) Accurately ripped
05 [252322d8] (002/201) Accurately ripped
06 716c06d (002/201) Accurately ripped
07 [2c13dcbd] (002/201) Accurately ripped
08 [37a80554] (002/201) Accurately ripped
09 [6c48321b] (002/200) Accurately ripped
10 72d963b (002/201) Accurately ripped
11 [3e5b6278] (002/196) Accurately ripped
Offsetted by 6:
01 [06e5e02c] (002/201) Accurately ripped
02 [a8dfb19e] (002/202) Accurately ripped
03 [39fa568c] (002/203) Accurately ripped
04 [a8fcd0bc] (002/202) Accurately ripped
05 [ea4b874d] (002/201) Accurately ripped
06 [9f413b87] (002/201) Accurately ripped
07 [8a8ea4fd] (002/201) Accurately ripped
08 [5d63dc38] (002/201) Accurately ripped
09 [dc292f21] (002/200) Accurately ripped
10 [c0024a35] (002/201) Accurately ripped
11 [f34ea06b] (002/196) Accurately ripped
Offsetted by 36:
01 [c78cd04c] (043/201) Accurately ripped
02 [3ee83f01] (044/202) Accurately ripped
03 bbf6e8e (044/203) Accurately ripped
04 [8dc58188] (043/202) Accurately ripped
05 [f5093a2b] (043/201) Accurately ripped
06 [0ede2818] (043/201) Accurately ripped
07 [493a3c88] (043/201) Accurately ripped
08 [f1087fed] (043/201) Accurately ripped
09 [a6886967] (043/200) Accurately ripped
10 [27954113] (043/201) Accurately ripped
11 e4c0c44 (042/196) Accurately ripped
Offsetted by 42:
01 [c10641e4] (002/201) Accurately ripped
02 [ddcc5b45] (002/202) Accurately ripped
03 [ce34d6e9] (002/203) Accurately ripped
04 [a267c0cf] (002/202) Accurately ripped
05 [8abda9b1] (002/201) Accurately ripped
06 [c11218bc] (002/201) Accurately ripped
07 [a977678a] (002/201) Accurately ripped
08 [41f5d8ee] (002/201) Accurately ripped
09 [89c39aeb] (002/200) Accurately ripped
10 [4abbd560] (002/201) Accurately ripped
11 [7832c745] (002/196) Accurately ripped
Offsetted by 664:
01 [71fe6ea0] (030/201) Accurately ripped
02 [2152dfae] (112/202) Accurately ripped
03 [69a5a2a8] (111/203) Accurately ripped
04 [68195740] (111/202) Accurately ripped
05 [d03fc1b9] (110/201) Accurately ripped
06 [3003d52d] (110/201) Accurately ripped
07 [2d65c55c] (110/201) Accurately ripped
08 [98662452] (110/201) Accurately ripped
09 [5e886509] (109/200) Accurately ripped
10 [35511ed2] (110/201) Accurately ripped
11 [c5ffdba5] (108/196) Accurately ripped
Offsetted by 18:
01 [20d00cf1] (000/201) No match but offset
02 [6242ea30] (022/202) Accurately ripped
03 [6d5e271d] (022/203) Accurately ripped
04 [d2becb71] (022/202) Accurately ripped
05 [560dca4b] (022/201) Accurately ripped
06 [3b46985e] (022/201) Accurately ripped
07 [e9898b61] (022/201) Accurately ripped
08 [194ba77d] (022/201) Accurately ripped
09 9c1be99 (022/200) Accurately ripped
10 d20cdf7 (022/201) Accurately ripped
11 [7b7202b0] (021/196) Accurately ripped
Offsetted by 670:
01 [fd989b4d] (000/201) No match but offset
02 [3aef7745] (000/202) No match
03 [745a03fe] (002/203) Accurately ripped
04 [7d1e1268] (002/202) Accurately ripped
05 [866e52c8] (002/201) Accurately ripped
06 [e1dc83ab] (002/201) Accurately ripped
07 [8d2a20bc] (002/201) Accurately ripped
08 [ce484ada] (002/201) Accurately ripped
09 [57bf9648] (002/200) Accurately ripped
10 [a1cc5806] (002/201) Accurately ripped
11 [807382a8] (002/196) Accurately ripped

Track Peak [ CRC32 ] [W/O NULL] [ LOG ]
-- 99,8 [7EAA805A] [97ACA153] CRC32
01 99,8 [2FF81422] [D6EF2F6C]
02 99,8 [6F17657D] [6BE93080]
03 99,8 [443C765D] [12F47FC2]
04 99,8 [C8EFB3AE] [4C74ADEA]
05 99,8 [7A9009CA] [7BBB7A21]
06 99,8 [D91D8E63] C6013AC
07 99,8 [C835D90F] [2DAAA93F]
08 92,9 [974A2CF2] [7035841E]
09 99,8 [D000B674] [79FAA9E7]
10 99,8 [4863598E] [844CEC61]
11 99,8 [C0684B04] [507F4BF1]
DOWNLOAD LINKS:
Buy Premium To Support Me & Get Resumable Support & Max Speed


Links are Interchangeable - No Password - Single Extraction

Bob Dylan - Planet Waves (1974) Fast Download


Ad2

 
 
 
Dear visitor, you went to the site as an unregistered user. We encourage you to register or enter the site under your name.
 
   
 
 (Votes #: 0)