2013Zone For Latest Downloads

 
     
 
Legal Downloads » Music » Mad Season - Above (1995) (Deluxe Edition)
Menu
Home Applications
Games Movies
Music TV Shows
Torrents Graphics

Sitemap

RSS
 
Advanced Search
Last News
Site Info
Top Contributors:
  1    supper88 32766
  2    admin 32671
  3    Whisky 10080
  4    Shark_ 8911
  5    creativelivenew 8706
  6    whathesupa 2799
  7    candymypost 840
  8    hvnteam 629
  9    vuong87 3


Articles:
  This Hour: 0
  Today: 0
  This Month: 58
  All Time: 515616


Torrents:
  Today: 0
  Yesterday: 0
  All Time: 156702


Membership:
  Registered Today :0
  This Hour:0
  This Month:0
  Total:14
  Banned:1

{online}
{inform_torrent}
Friend:
We Recomend
Trend
Trend
Ad1

Search In Site

Music : Mad Season - Above (1995) (Deluxe Edition)
 
http://i47.fastpic.ru/big/2015/0512/6e/9c354bee8bb044774fd0e7b72063466e.jpg

Mad Season - Above (1995) (Deluxe Edition)
DVD9 | VIDEO_TS | MPEG-2 Video, NTSC 4:3 (720:480), 29.97fps, 8370kbps | DD 5.1, 448kbps; LPCM 2.0 | 151min | 8150Mb
2CD | Flac + Cue + Log | 1010Mb
Rock | Columbia/Legacy 88725473392 | rel: 2013 | covers

Think of the one-shot Seattle supergroup Mad Season as the grunge version of sober living. Guitarist Mike McCready, best known as the main six-string slinger in Pearl Jam, met bassist John Baker Saunders while in rehab, and the two paired with Screaming Trees drummer Barrett Martin and Alice in Chains' vocalist Layne Staley, partially in hopes of steering the singer onto the path of the straight and narrow. Ultimately, the plan didn't pan out but for a brief while, the quartet -- who adopted the name Mad Season -- did have their moment of clarity, captured on the 1995 album Above.
There was a single issued to modern rock radio -- "River of Deceit" -- but this record downplayed easy hooks and melody in favor of churning introspection and slow vamps that occasionally flirt with blues (the never-ending 12-bar "Artificial Red," balanced by the distorto riffs of "I Don't Everything") but usually conjure nothing more than the dank sludge of Seattle. Mad Season isn't quite mired in the darkest areas of grunge -- they're clever enough to let a saxophonist lend color to "Long Gone Day" -- but the lack of melodicism is a bit of a drag over the long haul, turning Above into a bit of heavy mood music. In a sense, it's the id of Seattle run rampant: all the bands involved, outside of Saunders' Walkabouts and Martin's Trees (who were nevertheless considerably more popular than Saunders' group), enjoyed commercial success in 1995, so they could have gotten away with anything and, in a sense, they did, letting a major release this turgid bit of soul-baring heavy rock. McCready gets plenty of room for his elliptical guitar, the players have space to dig into their minor-key vamps, Staley essays his only set of completely original lyrics, but the whole thing feels kind of inert and indulgent, which may be appropriate for a band treating rock & roll as therapy. [The 2013 Deluxe Edition of Above is loaded with bonus material, beginning with four tracks from Mad Season's unfinished 1999 album, finally completed with the Screaming Trees' Mark Lanegan as lyricist and vocalist. Lanegan adds a gravity the otherwise tortured Staley lacked -- as dynamic a frontman as Layne was, Lanegan feels made of granite -- and consequently, these bonus tracks are little more compelling than the proper album. Elsewhere on the Deluxe Edition lie the entirety of the group's final gig, a performance at the Seattle venue the Moore from April of 1995, captured as both a CD (weighing in at 11 tracks) and a DVD (a seven-cut edit, followed by five bonus tracks). Elsewhere on the DVD are other live performances, including a full concert at RKCNDY and some highlights from Pearl Jam's Self Pollution Radio. These bonus cuts don't change the overall impression of the album but they do give hardcore fans plenty of rarities to savor.] ~Allmusic

Tracks:
cd1:
01. Wake Up (7:39)
02. X-Ray Mind (5:13)
03. River Of Deceit (5:04)
04. I'm Above (5:45)
05. Artificial Red (6:19)
06. Lifeless Dead (4:29)
07. I Don't Know Anything (5:02)
08. Long Gone Day (4:51)
09. November Hotel (7:08)
10. All Alone (4:16)
11. Interlude (0:43)
12. Locomotive (4:34)
13. Black Book Of Fear (6:09)
14. Slip Away (5:40)
15. I Don't Wanna Be A Soldier (Remix) (5:53)
~ (78:44)

cd2 - Live At The Moore:
01. Wake Up (7:39)
02. Lifeless Dead (5:00)
03. Artificial Red (6:21)
04. River Of Deceit (5:10)
05. I Don't Wanna Be A Soldier (9:21)
06. Long Gone Day (5:21)
07. I'm Above (5:36)
08. I Don't Know Anything (6:24)
09. X-Ray Mind (5:32)
10. All Alone (4:18)
11. November Hotel (13:49)
~ (74:31)

DVD - Live at The Moore + Bonus Footage:
- Full video set of the Live at The Moore performance from Seattle, WA performance, April 29, 1995. Remixed and remastered for 5.1 sound, and newly edited by director Duncan Sharp.
01. "Lifeless Dead"
02. "River Of Deceit"
03. "Long Gone Day"
04. "I Don't Know Anything"
05. "X-Ray Mind"
06. "All Alone"
07. "November Hotel"
- Plus, more bonus footage, including a full concert of the band's performance from New Years Eve 1995 at RKCNDY in Seattle, and both performances from the Seattle-based Self-Pollution Radio specials, one newly edited.

Personnel:
- Barrett Martin - drums, percussion, double bass, cello, marimba, vibraphone
- Mike McCready - lead and rhythm electric and acoustic guitars
- John Baker Saunders - bass guitar
- Layne Staley - vocals, rhythm guitar, illustrations

Exact Audio Copy V1.0 beta 3 from 29. August 2011

EAC extraction logfile from 1. April 2013, 17:13

Mad Season / Above [Deluxe Edition] [Disc 1]

Used drive : HL-DT-STDVDRWBD CA10N Adapter: 1 ID: 0

Read mode : Secure
Utilize accurate stream : Yes
Defeat audio cache : Yes
Make use of C2 pointers : No

Read offset correction

: 667
Overread into Lead-In and Lead-Out : No
Fill up missing offset samples with silence : Yes
Delete leading and trailing silent blocks : No
Null samples used in CRC calculations : Yes
Used interface
: Native Win32 interface for Win NT & 2000
Gap handling
: Appended to previous track

Used output format : User Defined Encoder
Selected bitrate : 1024 kBit/s
Quality : High
Add ID3 tag : No
Command line compressor : C:\Program Files (x86)\Exact Audio Copy\FLAC\FLAC.EXE
Additional command line options : -6 -V -T "ARTIST=%artist%" -T "TITLE=%title%" -T "ALBUM=%albumtitle%" -T "DATE=%year%" -T "TRACKNUMBER=%tracknr%" -T "GENRE=%genre%" -T "COMMENT=%comment%" %hascover%--picture="%coverfile%"%hascover% %source% -o %dest%

TOC of the extracted CD Track | Start | Length | Start sector | End sector
1 | 0:00.00 | 7:39.26 | 0 | 34450 2 | 7:39.26 | 5:13.05 | 34451 | 57930 3 | 12:52.31 | 5:04.12 | 57931 | 80742 4 | 17:56.43 | 5:44.68 | 80743 | 106610 5 | 23:41.36 | 6:18.51 | 106611 | 135011 6 | 30:00.12 | 4:28.71 | 135012 | 155182 7 | 34:29.08 | 5:02.03 | 155183 | 177835 8 | 39:31.11 | 4:51.34 | 177836 | 199694 9 | 44:22.45 | 7:07.49 | 199695 | 231768
10 | 51:30.19 | 4:15.62 | 231769 | 250955
11 | 55:46.06 | 0:43.09 | 250956 | 254189
12 | 56:29.15 | 4:34.16 | 254190 | 274755
13 | 61:03.31 | 6:08.40 | 274756 | 302395
14 | 67:11.71 | 5:39.52 | 302396 | 327872
15 | 72:51.48 | 5:52.58 | 327873 | 354330

Track 1 Filename C:\EAC\Mad Season - Above [Deluxe Edition] [Disc 1]\01 - Wake Up.wav Pre-gap length 0:00:02.00 Peak level 98.8 %
Extraction speed 1.3 X
Track quality 100.0 %
Test CRC 0F535CFA
Copy CRC 0F535CFA
Track not present in AccurateRip database
Copy OK

Track 2 Filename C:\EAC\Mad Season - Above [Deluxe Edition] [Disc 1]\02 - X-Ray Mind.wav Pre-gap length 0:00:03.24 Peak level 98.8 %
Extraction speed 1.3 X
Track quality 99.9 %
Test CRC 38B03652
Copy CRC 38B03652
Track not present in AccurateRip database
Copy OK

Track 3 Filename C:\EAC\Mad Season - Above [Deluxe Edition] [Disc 1]\03 - River Of Deceit.wav Peak level 98.8 %
Extraction speed 1.6 X
Track quality 100.0 %
Test CRC FEDAB131
Copy CRC FEDAB131
Track not present in AccurateRip database
Copy OK

Track 4 Filename C:\EAC\Mad Season - Above [Deluxe Edition] [Disc 1]\04 - I'm Above.wav Pre-gap length 0:00:01.19 Peak level 98.8 %
Extraction speed 1.8 X
Track quality 100.0 %
Test CRC F0157311
Copy CRC F0157311
Track not present in AccurateRip database
Copy OK

Track 5 Filename C:\EAC\Mad Season - Above [Deluxe Edition] [Disc 1]\05 - Artificial Red.wav Peak level 98.8 %
Extraction speed 1.9 X
Track quality 100.0 %
Test CRC FE727B0C
Copy CRC FE727B0C
Track not present in AccurateRip database
Copy OK

Track 6 Filename C:\EAC\Mad Season - Above [Deluxe Edition] [Disc 1]\06 - Lifeless Dead.wav Pre-gap length 0:00:03.57 Peak level 98.8 %
Extraction speed 1.9 X
Track quality 100.0 %
Test CRC 304E88E4
Copy CRC 304E88E4
Track not present in AccurateRip database
Copy OK

Track 7 Filename C:\EAC\Mad Season - Above [Deluxe Edition] [Disc 1]\07 - I Don't Know Anything.wav Pre-gap length 0:00:01.40 Peak level 98.8 %
Extraction speed 2.1 X
Track quality 100.0 %
Test CRC D92DE6E7
Copy CRC D92DE6E7
Track not present in AccurateRip database
Copy OK

Track 8 Filename C:\EAC\Mad Season - Above [Deluxe Edition] [Disc 1]\08 - Long Gone Day.wav Pre-gap length 0:00:01.60 Peak level 98.8 %
Extraction speed 2.1 X
Track quality 100.0 %
Test CRC 59AC72CB
Copy CRC 59AC72CB
Track not present in AccurateRip database
Copy OK

Track 9 Filename C:\EAC\Mad Season - Above [Deluxe Edition] [Disc 1]\09 - November Hotel.wav Pre-gap length 0:00:01.42 Peak level 98.8 %
Extraction speed 2.3 X
Track quality 100.0 %
Test CRC B8496DAB
Copy CRC B8496DAB
Track not present in AccurateRip database
Copy OK

Track 10 Filename C:\EAC\Mad Season - Above [Deluxe Edition] [Disc 1]\10 - All Alone.wav Pre-gap length 0:00:02.71 Peak level 98.8 %
Extraction speed 0.3 X
Track quality 100.0 %
Test CRC 3ECB990D
Copy CRC 3ECB990D
Track not present in AccurateRip database
Copy OK

Track 11 Filename C:\EAC\Mad Season - Above [Deluxe Edition] [Disc 1]\11 - Interlude onus Track.wav Pre-gap length 0:00:04.26 Peak level 36.5 %
Extraction speed 1.0 X
Track quality 99.7 %
Test CRC AAB9AD77
Copy CRC AAB9AD77
Track not present in AccurateRip database
Copy OK

Track 12 Filename C:\EAC\Mad Season - Above [Deluxe Edition] [Disc 1]\12 - Locomotive onus Track.wav Peak level 98.8 %
Extraction speed 2.2 X
Track quality 99.9 %
Test CRC 68B4F4A1
Copy CRC 68B4F4A1
Track not present in AccurateRip database
Copy OK

Track 13 Filename C:\EAC\Mad Season - Above [Deluxe Edition] [Disc 1]\13 - Black Book Of Fear onus Track.wav Pre-gap length 0:00:01.22 Peak level 98.8 %
Extraction speed 2.4 X
Track quality 99.9 %
Test CRC 3E0CD645
Copy CRC 3E0CD645
Track not present in AccurateRip database
Copy OK

Track 14 Filename C:\EAC\Mad Season - Above [Deluxe Edition] [Disc 1]\14 - Slip Away onus Track.wav Pre-gap length 0:00:03.35 Peak level 98.8 %
Extraction speed 2.6 X
Track quality 100.0 %
Test CRC 9AE9AC9E
Copy CRC 9AE9AC9E
Track not present in AccurateRip database
Copy OK

Track 15 Filename C:\EAC\Mad Season - Above [Deluxe Edition] [Disc 1]\15 - I Don't Wanna Be A Soldier (Remix) onus Track.wav Pre-gap length 0:00:01.54 Peak level 98.8 %
Extraction speed 1.0 X
Track quality 100.0 %
Test CRC AFC7AAC4
Copy CRC AFC7AAC4
Track not present in AccurateRip database
Copy OK

None of the tracks are present in the AccurateRip database

No errors occurred

End of status report

---- CUETools DB Plugin V2.1.3

[CTDB TOCID: wfFEi4exFoclBy60PciIomBA6Pk-] disk not present in database, Submit result: wfFEi4exFoclBy60PciIomBA6Pk- has been uploaded

==== Log checksum 58925E1314A6B524BF331EEBFE23D3001D9CD469E3FAABFDE8DDD7B47D57BE4D ====
--

Exact Audio Copy V1.0 beta 3 from 29. August 2011

EAC extraction logfile from 1. April 2013, 18:58

Mad Season / Above [Deluxe Edition] [Disc 2 - Live at the Moore]

Used drive : HL-DT-STDVDRWBD CA10N Adapter: 1 ID: 0

Read mode : Secure
Utilize accurate stream : Yes
Defeat audio cache : Yes
Make use of C2 pointers : No

Read offset correction

: 667
Overread into Lead-In and Lead-Out : No
Fill up missing offset samples with silence : Yes
Delete leading and trailing silent blocks : No
Null samples used in CRC calculations : Yes
Used interface
: Native Win32 interface for Win NT & 2000
Gap handling
: Appended to previous track

Used output format : User Defined Encoder
Selected bitrate : 1024 kBit/s
Quality : High
Add ID3 tag : No
Command line compressor : C:\Program Files (x86)\Exact Audio Copy\FLAC\FLAC.EXE
Additional command line options : -6 -V -T "ARTIST=%artist%" -T "TITLE=%title%" -T "ALBUM=%albumtitle%" -T "DATE=%year%" -T "TRACKNUMBER=%tracknr%" -T "GENRE=%genre%" -T "COMMENT=%comment%" %hascover%--picture="%coverfile%"%hascover% %source% -o %dest%

TOC of the extracted CD Track | Start | Length | Start sector | End sector
1 | 0:00.00 | 7:38.60 | 0 | 34409 2 | 7:38.60 | 4:59.46 | 34410 | 56880 3 | 12:38.31 | 6:21.20 | 56881 | 85475 4 | 18:59.51 | 5:10.18 | 85476 | 108743 5 | 24:09.69 | 9:20.55 | 108744 | 150798 6 | 33:30.49 | 5:21.07 | 150799 | 174880 7 | 38:51.56 | 5:36.35 | 174881 | 200115 8 | 44:28.16 | 6:23.46 | 200116 | 228886 9 | 50:51.62 | 5:31.72 | 228887 | 253783
10 | 56:23.59 | 4:17.54 | 253784 | 273112
11 | 60:41.38 | 13:49.30 | 273113 | 335317

Track 1 Filename C:\EAC\Mad Season - Above [Deluxe Edition] [Disc 2 - Live at the Moore]\01 - Wake Up.wav Pre-gap length 0:00:02.00 Peak level 98.8 %
Extraction speed 2.9 X
Track quality 99.9 %
Test CRC A5FC3FF3
Copy CRC A5FC3FF3
Track not present in AccurateRip database
Copy OK

Track 2 Filename C:\EAC\Mad Season - Above [Deluxe Edition] [Disc 2 - Live at the Moore]\02 - Lifeless Dead.wav Peak level 98.8 %
Extraction speed 3.5 X
Track quality 100.0 %
Test CRC 611EC2C2
Copy CRC 611EC2C2
Track not present in AccurateRip database
Copy OK

Track 3 Filename C:\EAC\Mad Season - Above [Deluxe Edition] [Disc 2 - Live at the Moore]\03 - Artificial Red.wav Peak level 98.8 %
Extraction speed 3.9 X
Track quality 100.0 %
Test CRC C6F7199E
Copy CRC C6F7199E
Track not present in AccurateRip database
Copy OK

Track 4 Filename C:\EAC\Mad Season - Above [Deluxe Edition] [Disc 2 - Live at the Moore]\04 - River Of Deceit.wav Peak level 98.8 %
Extraction speed 4.1 X
Track quality 100.0 %
Test CRC B5C8AC38
Copy CRC B5C8AC38
Track not present in AccurateRip database
Copy OK

Track 5 Filename C:\EAC\Mad Season - Above [Deluxe Edition] [Disc 2 - Live at the Moore]\05 - I Don't Wanna Be A Soldier.wav Peak level 98.8 %
Extraction speed 4.3 X
Track quality 99.9 %
Test CRC 17898303
Copy CRC 17898303
Track not present in AccurateRip database
Copy OK

Track 6 Filename C:\EAC\Mad Season - Above [Deluxe Edition] [Disc 2 - Live at the Moore]\06 - Long Gone Day.wav Peak level 98.8 %
Extraction speed 4.8 X
Track quality 100.0 %
Test CRC FAF92E8A
Copy CRC FAF92E8A
Track not present in AccurateRip database
Copy OK

Track 7 Filename C:\EAC\Mad Season - Above [Deluxe Edition] [Disc 2 - Live at the Moore]\07 - I'm Above.wav Peak level 98.8 %
Extraction speed 5.0 X
Track quality 100.0 %
Test CRC C4CDC692
Copy CRC C4CDC692
Track not present in AccurateRip database
Copy OK

Track 8 Filename C:\EAC\Mad Season - Above [Deluxe Edition] [Disc 2 - Live at the Moore]\08 - I Don't Know Anything.wav Peak level 98.8 %
Extraction speed 5.3 X
Track quality 100.0 %
Test CRC BF22DB36
Copy CRC BF22DB36
Track not present in AccurateRip database
Copy OK

Track 9 Filename C:\EAC\Mad Season - Above [Deluxe Edition] [Disc 2 - Live at the Moore]\09 - X-Ray Mind.wav Peak level 98.8 %
Extraction speed 5.5 X
Track quality 100.0 %
Test CRC 3A03639A
Copy CRC 3A03639A
Track not present in AccurateRip database
Copy OK

Track 10 Filename C:\EAC\Mad Season - Above [Deluxe Edition] [Disc 2 - Live at the Moore]\10 - All Alone.wav Peak level 98.8 %
Extraction speed 5.5 X
Track quality 100.0 %
Test CRC 70175A0A
Copy CRC 70175A0A
Track not present in AccurateRip database
Copy OK

Track 11 Filename C:\EAC\Mad Season - Above [Deluxe Edition] [Disc 2 - Live at the Moore]\11 - November Hotel.wav Peak level 98.8 %
Extraction speed 6.3 X
Track quality 100.0 %
Test CRC 7391685A
Copy CRC 7391685A
Track not present in AccurateRip database
Copy OK

None of the tracks are present in the AccurateRip database

No errors occurred

End of status report

---- CUETools DB Plugin V2.1.3

[CTDB TOCID: sfBdYWX_uta5P4xOv53d4F2S1p4-] disk not present in database, Submit result: sfBdYWX_uta5P4xOv53d4F2S1p4- has been uploaded

==== Log checksum 8530E12DF05645502771FBBC04CC614501060639647AEC3E63048AB3D5103AD7 ====

[CUETools log; Date: 2015.05.08. 11:21:28; Version: 2.1.4]
HDCD: peak extend: none, transient filter: some, gain: none
[CTDB TOCID: wfFEi4exFoclBy60PciIomBA6Pk-] found.
Track | CTDB Status
1 | (41/41) Accurately ripped
2 | (41/41) Accurately ripped
3 | (41/41) Accurately ripped
4 | (41/41) Accurately ripped
5 | (41/41) Accurately ripped
6 | (41/41) Accurately ripped
7 | (41/41) Accurately ripped
8 | (41/41) Accurately ripped
9 | (41/41) Accurately ripped
10 | (41/41) Accurately ripped
11 | (41/41) Accurately ripped
12 | (41/41) Accurately ripped
13 | (41/41) Accurately ripped
14 | (41/41) Accurately ripped
15 | (41/41) Accurately ripped
[AccurateRip ID: 002ceaf5-01f3840c-ce12740f] found.
Track [ CRC | V2 ] Status
01 [5b5398d2|ca5b6221] (08+39/66) Accurately ripped
02 a66b813|5834cbfa (08+39/66) Accurately ripped
03 [0590c995|e8a8b6c0] (08+39/66) Accurately ripped
04 [ae4ff903|e8164f3a] (08+37/64) Accurately ripped
05 [2c454759|d17ba1bc] (08+38/65) Accurately ripped
06 [92c3bd28|6f6e3591] (08+38/64) Accurately ripped
07 [8a4ed2ae|fb1ce235] (08+39/66) Accurately ripped
08 [e723313f|d5953ff5] (08+38/65) Accurately ripped
09 [faaeab2d|7b3f7344] (08+39/66) Accurately ripped
10 [9369cb7e|dff07e1d] (08+37/64) Accurately ripped
11 [fddb2794|f005036e] (08+39/66) Accurately ripped
12 [69eaf088|6e370a79] (08+40/67) Accurately ripped
13 [88758655|8dbac18e] (08+40/67) Accurately ripped
14 [53747f3e|f4846717] (08+42/68) Accurately ripped
15 [dbd388fb|7f0203ad] (07+39/65) Accurately ripped
Offsetted by -12:
01 49965fe (02/66) Accurately ripped
02 [280d01f2] (02/66) Accurately ripped
03 [f4a9b3e9] (02/66) Accurately ripped
04 [1c13deb4] (02/64) Accurately ripped
05 [20a98040] (02/65) Accurately ripped
06 [6ec10c8f] (02/64) Accurately ripped
07 [030a888a] (02/66) Accurately ripped
08 [19ac2493] (02/65) Accurately ripped
09 [d0c869a6] (02/66) Accurately ripped
10 [d0f0725b] (02/64) Accurately ripped
11 [90edc0e7] (02/66) Accurately ripped
12 [72505b25] (02/67) Accurately ripped
13 [e452207f] (02/67) Accurately ripped
14 [eb1597be] (02/68) Accurately ripped
15 [ef96b571] (02/65) Accurately ripped

Track Peak [ CRC32 ] [W/O NULL] [ LOG ]
-- 98,8 [92A057E3] [9BE930B2]
01 98,8 [0F535CFA] [50B88388] CRC32
02 98,8 [38B03652] [0127F170] CRC32
03 98,8 [FEDAB131] [123240E3] CRC32
04 98,8 [F0157311] [77AE4F8C] CRC32
05 98,8 [FE727B0C] [329EBD00] CRC32
06 98,8 [304E88E4] [EEB00E7C] CRC32
07 98,8 [D92DE6E7] [5FCC05FF] CRC32
08 98,8 [59AC72CB] 2BB337C CRC32
09 98,8 8496DAB [1BBCAD5B] CRC32
10 98,8 [3ECB990D] [8599902E] CRC32
11 36,5 [AAB9AD77] [6A862B68] CRC32
12 98,8 [68B4F4A1] [CE979235] CRC32
13 98,8 [3E0CD645] [DFFA5D1F] CRC32
14 98,8 [9AE9AC9E] [CE612D1F] CRC32
15 98,8 [AFC7AAC4] [6BC9D466] CRC32

-------
[CUETools log; Date: 2015.05.08. 11:21:59; Version: 2.1.4]
HDCD: peak extend: none, transient filter: some, gain: none
[CTDB TOCID: sfBdYWX_uta5P4xOv53d4F2S1p4-] found.
Track | CTDB Status
1 | (42/42) Accurately ripped
2 | (42/42) Accurately ripped
3 | (42/42) Accurately ripped
4 | (42/42) Accurately ripped
5 | (42/42) Accurately ripped
6 | (42/42) Accurately ripped
7 | (42/42) Accurately ripped
8 | (42/42) Accurately ripped
9 | (42/42) Accurately ripped
10 | (42/42) Accurately ripped
11 | (41/42) Accurately ripped
[AccurateRip ID: 001d0749-00fb7a5b-7811760b] found.
Track [ CRC | V2 ] Status
01 [dca0394a|54408fa0] (05+38/61) Accurately ripped
02 [63c20099|b6750f43] (05+39/62) Accurately ripped
03 [f75bb2be|3733e027] (05+39/62) Accurately ripped
04 [7861dad1|50b39f56] (04+39/61) Accurately ripped
05 [38f63176|51a83c37] (04+39/61) Accurately ripped
06 [aeccedb2|61ad4f2b] (04+39/61) Accurately ripped
07 [4ec203e5|9f939223] (04+39/61) Accurately ripped
08 [46855d42|518c00ae] (04+38/60) Accurately ripped
09 [7f88d902|71ab0b07] (05+39/62) Accurately ripped
10 [af41c47e|58238abf] (05+38/61) Accurately ripped
11 [a6c054ff|1d4ce92f] (04+35/57) Accurately ripped
Offsetted by -12:
01 [f9c08f3d] (02/61) Accurately ripped
02 [383fb176] (02/62) Accurately ripped
03 [9ba3b7f2] (02/62) Accurately ripped
04 [14f74962] (02/61) Accurately ripped
05 [49f89bdf] (02/61) Accurately ripped
06 [f07dcde8] (02/61) Accurately ripped
07 [9a8c351c] (02/61) Accurately ripped
08 [fb26490a] (02/60) Accurately ripped
09 [deb85082] (02/62) Accurately ripped
10 [6240c167] (02/61) Accurately ripped
11 [6781bf8b] (02/57) Accurately ripped

Track Peak [ CRC32 ] [W/O NULL] [ LOG ]
-- 98,8 [E6F4C0C9] [1E0875A6]
01 98,8 [A5FC3FF3] [63634EBA] CRC32
02 98,8 [611EC2C2] [7FF1FDAD] CRC32
03 98,8 [C6F7199E] [351E18C2] CRC32
04 98,8 5C8AC38 [59BD347E] CRC32
05 98,8 [17898303] [E6A58469] CRC32
06 98,8 [FAF92E8A] [F990C2C6] CRC32
07 98,8 [C4CDC692] [4287D5EB] CRC32
08 98,8 F22DB36 [83175DE8] CRC32
09 98,8 [3A03639A] [D379956A] CRC32
10 98,8 [70175A0A] 08F4521 CRC32
11 98,8 [7391685A] [4E1B28E4] CRC32

http://i57.fastpic.ru/big/2015/0512/1d/3ad9691e64ee6360ef6085ebe93bbe1d.jpg

http://i60.fastpic.ru/big/2015/0512/99/1784d3545d86fca8a6e87021f8b36a99.jpg

http://i47.fastpic.ru/big/2015/0512/f7/784c06ac246e526eea1adce4c1ba15f7.jpg

DOWNLOAD LINKS:
Buy Premium To Support Me & Get Resumable Support & Max Speed


Links are Interchangeable - No Password - Single Extraction

Mad Season - Above (1995) (Deluxe Edition) Fast Download


Ad2

 
 
 
Dear visitor, you went to the site as an unregistered user. We encourage you to register or enter the site under your name.
 
   
 
 (Votes #: 0)