2013Zone For Latest Downloads

 
     
 
Legal Downloads » Music » Kenny Dorham - Trompeta Toccata (1964) [RVG Edition, 2006]
Menu
Home Applications
Games Movies
Music TV Shows
Torrents Graphics

Sitemap

RSS
 
Advanced Search
Last News
Site Info
Top Contributors:
  1    supper88 32766
  2    admin 32711
  3    Whisky 10080
  4    Shark_ 8911
  5    creativelivenew 8706
  6    whathesupa 2799
  7    candymypost 840
  8    hvnteam 629
  9    vuong87 3


Articles:
  This Hour: 0
  Today: 0
  This Month: 0
  All Time: 515501


Torrents:
  Today: 0
  Yesterday: 0
  All Time: 156676


Membership:
  Registered Today :0
  This Hour:0
  This Month:0
  Total:14
  Banned:1

{online}
{inform_torrent}
Friend:
Full Download Scripts
Torrent Download
Trend
Trend

Search In Site

Music : Kenny Dorham - Trompeta Toccata (1964) [RVG Edition, 2006]
 
http://i60.fastpic.ru/big/2015/0512/a7/43bd82e03ae2db3081e6c91c62bd38a7.jpg

Kenny Dorham - Trompeta Toccata (1964) [RVG Edition, 2006]
EAC Rip | FLAC: Tracks+Cue+Log | 250 Mb | MP3 CBR 320 kbps | 98 Mb | Scans | Time: 37:09
Genre: Jazz, Hard Bop | Label: Blue Note/Capitol | Cat.№: 0946 3 62635 2 6

"Trompeta Toccata is a 1964 jazz album by trumpeter Kenny Dorham. It was released on Blue Note label in 1964 as BST 84181. It was remastered by Rudy Van Gelder in 2006. Trompeta Toccata, as the previous Una Mas, features only four pieces, three of which were written by Dorham himself. They are mostly fast bop pieces featuring long trumpet and saxophones solos. Like many Dorham compositions, they incorporate elements of Latin music and blues."



Track Listing

01. Trompeta Toccata (12:22)
02. Night Watch (05:44)
03. Mamacita (11:02)
04. The Fox (07:59)

Produced by Alfred Lion
Reissue produced by Michael Cuscuna

Musicians

* Kenny Dorham - trumpet
* Joe Henderson - tenor sax
* Tommy Flanagan - piano
* Richard Davis - bass
* Albert Heath - drums

Notes

Remastered in 2006 by Rudy Van Gelder

Blue Note Records: RVG Edition

Originally recorded on September 14, 1964 at the Van Gelder Studio, Englewood Cliffs, New Jersey.
Originally issued as Blue Note BST 84181.

All transfers from analog to digital made at 24-bit resolution.

Booklet is incorrectly crediting Donald Byrd as writer for track 3.

EAC extraction logfile from 17. October 2006, 3:25 for CD
Kenny Dorham / Trompeta Toccata

Used drive : HL-DT-STDVDRAM GSA-4163B Adapter: 1 ID: 1
Read mode : Secure with NO C2, accurate stream, disable cache
Read offset correction : 667
Overread into Lead-In and Lead-Out : No

Used output format : Internal WAV Routines 44.100 Hz; 16 Bit; Stereo

Other options :
Fill up missing offset samples with silence : Yes
Delete leading and trailing silent blocks : No
Installed external ASPI interface

Track 1
Filename D:\Kenny Dorham - Trompete Toccata (19640[FLAC]{RVG}\01 - Trompeta Toccata.wav Pre-gap length 0:00:02.00 Peak level 97.9 %
Track quality 100.0 %
Test CRC 9529B851
Copy CRC 9529B851
Copy OK

Track 2
Filename D:\Kenny Dorham - Trompete Toccata (19640[FLAC]{RVG}\02 - Night Watch.wav Pre-gap length 0:00:02.10 Peak level 97.9 %
Track quality 100.0 %
Test CRC 3EAD7711
Copy CRC 3EAD7711
Copy OK

Track 3
Filename D:\Kenny Dorham - Trompete Toccata (19640[FLAC]{RVG}\03 - Mamacita.wav Pre-gap length 0:00:01.66 Peak level 97.9 %
Track quality 99.9 %
Test CRC 4E2CB6CD
Copy CRC 4E2CB6CD
Copy OK

Track 4
Filename D:\Kenny Dorham - Trompete Toccata (19640[FLAC]{RVG}\04 - The Fox.wav Pre-gap length 0:00:01.33 Peak level 97.9 %
Track quality 100.0 %
Test CRC A8B7E9E6
Copy CRC A8B7E9E6
Copy OK

No errors occured

End of status report

Many thanks to the original uploader: Kator

A series of Blue Note albums originally recorded and later remastered by veteran jazz engineer Rudy Van Gelder.
DOWNLOAD LINKS:
Buy Premium To Support Me & Get Resumable Support & Max Speed


Links are Interchangeable - No Password - Single Extraction

Kenny Dorham - Trompeta Toccata (1964) [RVG Edition, 2006] Fast Download



 
 
 
Dear visitor, you went to the site as an unregistered user. We encourage you to register or enter the site under your name.
 
   
 
 (Votes #: 0)