2013Zone For Latest Downloads

 
     
 
Legal Downloads » Music » VA - ABC Of The Blues: The Ultimate Collection From The Delta To The Big Cities (2010) [Vol. 45-48, 52CD Box Set]
Menu
Home Applications
Games Movies
Music TV Shows
Torrents Graphics

Sitemap

RSS
 
Advanced Search
Last News
Site Info
Top Contributors:
  1    supper88 32766
  2    admin 32671
  3    Whisky 10080
  4    Shark_ 8911
  5    creativelivenew 8706
  6    whathesupa 2799
  7    candymypost 840
  8    hvnteam 629
  9    vuong87 3


Articles:
  This Hour: 0
  Today: 0
  This Month: 58
  All Time: 515616


Torrents:
  Today: 0
  Yesterday: 0
  All Time: 156702


Membership:
  Registered Today :0
  This Hour:0
  This Month:0
  Total:14
  Banned:1

{online}
{inform_torrent}
Friend:
We Recomend
Trend
Trend
Ad1

Search In Site

Music : VA - ABC Of The Blues: The Ultimate Collection From The Delta To The Big Cities (2010) [Vol. 45-48, 52CD Box Set]
 
http://i58.fastpic.ru/big/2015/0512/b3/9b46df251044a2fbd44a955fd349b1b3.jpg

VA - ABC Of The Blues: The Ultimate Collection From The Delta To The Big Cities (2010) [Vol. 45-48]
4CD | EAC Rip | FLAC (Img) + Cue + Log ~ 774 Mb (180+212+247+132 Mb) | Scans Included (JPG, 300 dpi) | RAR 5% Recovery
Blues, R&B | Stereo/Mono | M.A.T. Music and Theme Licensing Ltd. #233168

"This 52-disc (no, that is not a typo) comp, ABC of the Blues: The Ultimate Collection from the Delta to the Big Cities, may just indeed live up to its name. There are 98 artists represented , performing 1,040 tracks. The music begins at the beginning (though the set is not sequenced chronologically) with Charlie Patton, Son House, and Robert Johnson, and moves all the way through the vintage Chicago years of Muddy Waters and Howlin' Wolf, with stops along the way in Texas, Louisiana, Florida, Georgia, Mississippi, Tennessee, New York, and all points in between. Certainly, some of these artists are considered more rhythm & blues than purely blues artists: the inclusion of music by Johnny Otis, Wynonie Harris, Bo Diddley, and others makes that clear..."

***************

http://i47.fastpic.ru/big/2015/0512/f1/0f87d7b01ebe093996199bc8560948f1.jpg

Track List CD45 - Big Joe Turner, Eddie Cleanhead Vinson:

01. Big Joe Turner - Blues In The Night [02:29]
02. Big Joe Turner - Sun Risin' Blues [02:49]
03. Big Joe Turner - S.K. Blues Part 1 [03:01]
04. Big Joe Turner - Nobody In Mind [02:55]
05. Big Joe Turner - Blues On Central Avenue [02:38]
06. Big Joe Turner - Ice Man [02:56]
07. Big Joe Turner - Cry Baby Blues [02:53]
08. Big Joe Turner - Rebecca [02:43]
09. Big Joe Turner - It's The Same Old Story [02:58]
10. Big Joe Turner - Chewed Up Grass [02:35]
11. Eddie Cleanhead Vinson - Too Many Women Blues [02:43]
12. Eddie Cleanhead Vinson - Just A Dream [02:56]
13. Eddie Cleanhead Vinson - King For A Day Blues [03:07]
14. Eddie Cleanhead Vinson - Railroad Porter's Blues [02:49]
15. Eddie Cleanhead Vinson - Gonna Send You Back Where I Got You From [02:27]
16. Eddie Cleanhead Vinson - When I Get Drunk [02:45]
17. Eddie Cleanhead Vinson - Oil Man Blues [02:51]
18. Eddie Cleanhead Vinson - Ever-Ready Blues [02:46]
19. Eddie Cleanhead Vinson - I've Been So Good [03:01]
20. Eddie Cleanhead Vinson - Bonus Pay [02:55]

Exact Audio Copy V1.0 beta 3 from 29. August 2011

EAC extraction logfile from 5. April 2015, 21:49

Various / ABC Of The Blues CD45

Used drive : PLEXTOR DVDR PX-860A Adapter: 4 ID: 0

Read mode : Secure
Utilize accurate stream : Yes
Defeat audio cache : Yes
Make use of C2 pointers : No

Read offset correction

: 96
Overread into Lead-In and Lead-Out : No
Fill up missing offset samples with silence : Yes
Delete leading and trailing silent blocks : No
Null samples used in CRC calculations : Yes
Used interface
: Installed external ASPI interface

Used output format : User Defined Encoder
Selected bitrate : 128 kBit/s
Quality : High
Add ID3 tag : Yes
Command line compressor : G:\Program Files (x86)\Exact Audio Copy\Flac\flac.exe
Additional command line options : -V -8 -T "Date=%year%" -T "Genre=%genre%" %source%

TOC of the extracted CD Track | Start | Length | Start sector | End sector
1 | 0:00.00 | 2:28.02 | 0 | 11101 2 | 2:28.02 | 2:48.73 | 11102 | 23774 3 | 5:17.00 | 3:00.56 | 23775 | 37330 4 | 8:17.56 | 2:54.09 | 37331 | 50389 5 | 11:11.65 | 2:37.37 | 50390 | 62201 6 | 13:49.27 | 2:55.07 | 62202 | 75333 7 | 16:44.34 | 2:52.02 | 75334 | 88235 8 | 19:36.36 | 2:42.10 | 88236 | 100395 9 | 22:18.46 | 2:57.02 | 100396 | 113672
10 | 25:15.48 | 2:34.64 | 113673 | 125286
11 | 27:50.37 | 2:42.01 | 125287 | 137437
12 | 30:32.38 | 2:55.74 | 137438 | 150636
13 | 33:28.37 | 3:06.74 | 150637 | 164660
14 | 36:35.36 | 2:48.74 | 164661 | 177334
15 | 39:24.35 | 2:26.74 | 177335 | 188358
16 | 41:51.34 | 2:44.73 | 188359 | 200731
17 | 44:36.32 | 2:50.74 | 200732 | 213555
18 | 47:27.31 | 2:45.74 | 213556 | 226004
19 | 50:13.30 | 3:00.74 | 226005 | 239578
20 | 53:14.29 | 2:55.00 | 239579 | 252703

Range status and errors

Selected range Filename D:\MUSIC\Various - ABC Of The Blues CD45.wav Peak level 100.0 %
Extraction speed 7.6 X
Range quality 100.0 %
Test CRC 834849C1
Copy CRC 834849C1
Copy OK

No errors occurred


AccurateRip summary

Track 1 accurately ripped (confidence 10) [0E479E16] (AR v2)
Track 2 accurately ripped (confidence 10) [7C9C4955] (AR v2)
Track 3 accurately ripped (confidence 10) [D270B7F7] (AR v2)
Track 4 accurately ripped (confidence 10) [0B734BEF] (AR v2)
Track 5 accurately ripped (confidence 10) [0A3032A8] (AR v2)
Track 6 accurately ripped (confidence 10) [47A3EFDA] (AR v2)
Track 7 accurately ripped (confidence 10) [2ADB994F] (AR v2)
Track 8 accurately ripped (confidence 10) [0A9A67B9] (AR v2)
Track 9 accurately ripped (confidence 10) 7E119AA (AR v2)
Track 10 accurately ripped (confidence 10) [AFDFF885] (AR v2)
Track 11 accurately ripped (confidence 10) [5F8B4D9F] (AR v2)
Track 12 accurately ripped (confidence 10) [44A3C4C6] (AR v2)
Track 13 accurately ripped (confidence 10) [0B19F378] (AR v2)
Track 14 accurately ripped (confidence 10) [089F14F8] (AR v2)
Track 15 accurately ripped (confidence 10) [96795642] (AR v2)
Track 16 accurately ripped (confidence 10) [ABD57D38] (AR v2)
Track 17 accurately ripped (confidence 10) [3948E222] (AR v2)
Track 18 accurately ripped (confidence 10) [922C2F14] (AR v2)
Track 19 accurately ripped (confidence 10) [D09AD66D] (AR v2)
Track 20 accurately ripped (confidence 10) [DAA2681B] (AR v2)

All tracks accurately ripped

End of status report

==== Log checksum 7AB929BF6DB8CFB47DF532BD5F1554B5189195A3BA95ED80034C56197DC44456 ====

foobar2000 1.2.6 / Dynamic Range Meter 1.1.1
log date: 2015-05-10 17:20:16

------
Analyzed: Big Joe Turner / ABC Of The Blues CD45 (1-10) Eddie Cleanhead Vinson / ABC Of The Blues CD45 (11-20)
------

DR Peak RMS Duration Track
------
DR12 0.00 dB -15.36 dB 2:28 01-Blues In The Night
DR12 0.00 dB -14.30 dB 2:49 02-Sun Risin' Blues
DR12 0.00 dB -14.34 dB 3:01 03-S.K. Blues Part 1
DR14 0.00 dB -17.20 dB 2:54 04-Nobody In Mind
DR13 0.00 dB -15.25 dB 2:37 05-Blues On Central Avenue
DR12 0.00 dB -14.91 dB 2:55 06-Ice Man
DR13 0.00 dB -16.29 dB 2:52 07-Cry Baby Blues
DR14 0.00 dB -16.18 dB 2:42 08-Rebecca
DR12 0.00 dB -16.13 dB 2:57 09-It's The Same Old Story
DR13 0.00 dB -15.67 dB 2:35 10-Chewed Up Grass
DR16 0.00 dB -18.26 dB 2:42 11-Too Many Women Blues
DR13 0.00 dB -16.96 dB 2:56 12-Just A Dream
DR13 0.00 dB -15.81 dB 3:07 13-King For A Day Blues
DR13 0.00 dB -15.47 dB 2:49 14-Railroad Porter's Blues
DR14 0.00 dB -16.11 dB 2:27 15-Gonna Send You Back Where I Got You From
DR14 0.00 dB -16.02 dB 2:45 16-When I Get Drunk
DR12 0.00 dB -15.33 dB 2:51 17-Oil Man Blues
DR14 0.00 dB -16.63 dB 2:46 18-Ever-Ready Blues
DR11 0.00 dB -13.37 dB 3:01 19-I've Been So Good
DR11 0.00 dB -13.16 dB 2:55 20-Bonus Pay
------

Number of tracks: 20
Official DR value: DR13

Samplerate: 44100 Hz
Channels: 2
Bits per sample: 16
Bitrate: 421 kbps
Codec: FLAC

[CUETools log; Date: 10.05.2015 17:10:08; Version: 2.1.5]
[CTDB TOCID: UZ2MDbJNBCOGe_aso0zi.lGtBhk-] found.
Track | CTDB Status
1 | (14/14) Accurately ripped
2 | (14/14) Accurately ripped
3 | (14/14) Accurately ripped
4 | (14/14) Accurately ripped
5 | (14/14) Accurately ripped
6 | (14/14) Accurately ripped
7 | (14/14) Accurately ripped
8 | (14/14) Accurately ripped
9 | (14/14) Accurately ripped
10 | (14/14) Accurately ripped
11 | (14/14) Accurately ripped
12 | (14/14) Accurately ripped
13 | (14/14) Accurately ripped
14 | (14/14) Accurately ripped
15 | (14/14) Accurately ripped
16 | (14/14) Accurately ripped
17 | (14/14) Accurately ripped
18 | (14/14) Accurately ripped
19 | (14/14) Accurately ripped
20 | (14/14) Accurately ripped
[AccurateRip ID: 0028438c-024f5b5c-120d2914] found.
Track [ CRC | V2 ] Status
01 [20eb7bb0|0e479e16] (00+10/22) Accurately ripped
02 [434189ee|7c9c4955] (00+10/22) Accurately ripped
03 [5635d2fd|d270b7f7] (00+10/22) Accurately ripped
04 [3d9c0840|0b734bef] (00+10/22) Accurately ripped
05 [41fe2971|0a3032a8] (00+10/22) Accurately ripped
06 [a9ba8fbe|47a3efda] (00+10/22) Accurately ripped
07 [c2dca6c6|2adb994f] (00+10/22) Accurately ripped
08 [62318fb5|0a9a67b9] (00+10/22) Accurately ripped
09 [5ad55af0|b7e119aa] (00+10/22) Accurately ripped
10 [ad962006|afdff885] (00+10/22) Accurately ripped
11 [449503bb|5f8b4d9f] (00+10/22) Accurately ripped
12 [4a66b032|44a3c4c6] (00+10/22) Accurately ripped
13 [61989176|0b19f378] (00+10/22) Accurately ripped
14 [1c054b80|089f14f8] (00+10/22) Accurately ripped
15 23d2843|96795642 (00+10/22) Accurately ripped
16 [4915b726|abd57d38] (00+10/22) Accurately ripped
17 [3d7984c2|3948e222] (00+10/22) Accurately ripped
18 [8da7d32f|922c2f14] (00+10/22) Accurately ripped
19 [2feefaff|d09ad66d] (00+10/22) Accurately ripped
20 [d34c817f|daa2681b] (00+10/22) Accurately ripped
Offsetted by 628:
01 [6ef6d29b] (02/22) Accurately ripped
02 [c8726b4a] (02/22) Accurately ripped
03 [ea4fda05] (02/22) Accurately ripped
04 [08276ba4] (02/22) Accurately ripped
05 [20d9d66d] (02/22) Accurately ripped
06 [0bb7a18e] (02/22) Accurately ripped
07 [74223d3e] (02/22) Accurately ripped
08 [0b048a01] (02/22) Accurately ripped
09 [e5a3f440] (02/22) Accurately ripped
10 [a2d38f8a] (02/22) Accurately ripped
11 [56ac5aaf] (02/22) Accurately ripped
12 [f3a1c32a] (02/22) Accurately ripped
13 [53e255ca] (02/22) Accurately ripped
14 b6d8a00 (02/22) Accurately ripped
15 [9a6757e7] (02/22) Accurately ripped
16 [8d4cb9f2] (02/22) Accurately ripped
17 [a71b440e] (02/22) Accurately ripped
18 [cc29a69b] (02/22) Accurately ripped
19 [98ef4467] (02/22) Accurately ripped
20 a41ae1b (02/22) Accurately ripped
Offsetted by 664:
01 [8b76767d] (03/22) Accurately ripped
02 79f9db6 (03/22) Accurately ripped
03 [e27effed] (03/22) Accurately ripped
04 [47f172f8] (03/22) Accurately ripped
05 1b3e1f9 (03/22) Accurately ripped
06 [613b8a1e] (03/22) Accurately ripped
07 [39cfced6] (03/22) Accurately ripped
08 [29e49b9d] (03/22) Accurately ripped
09 [44049650] (03/22) Accurately ripped
10 [23065e7e] (03/22) Accurately ripped
11 [5e3b8d53] (03/22) Accurately ripped
12 [a88b0f42] (03/22) Accurately ripped
13 [57fd644e] (03/22) Accurately ripped
14 0ffbe80 (03/22) Accurately ripped
15 [ec32527b] (03/22) Accurately ripped
16 [fe75620e] (03/22) Accurately ripped
17 [06d7e6aa] (03/22) Accurately ripped
18 [3e9ff8d7] (03/22) Accurately ripped
19 [72eda72f] (03/22) Accurately ripped
20 [7adbf6c7] (03/22) Accurately ripped

Track Peak [ CRC32 ] [W/O NULL] [ LOG ]
-- 100,0 [834849C1] [D63D0CE9] CRC32
01 99,9 [6E67A411] [40F753AA]
02 100,0 [19547240] [F58B09F9]
03 99,9 [6DC42007] [1592E93D]
04 100,0 [F8D13A3F] [0712D7D3]
05 100,0 [AB8EBB26] [28D4AFDC]
06 100,0 [546CE1F1] [6DE7A655]
07 99,9 [4AC320C6] [D407D530]
08 100,0 [A2E84FE5] [FE2BA649]
09 99,9 [8046FF08] [1D57AF6B]
10 99,9 [AB1DB85D] [8BA07A36]
11 99,9 [D03FA950] [C4FAE03F]
12 100,0 [1F6AA331] [179991D7]
13 100,0 [AA576940] [4F1C9C8C]
14 100,0 [1DEAB5BC] [3D5C55DF]
15 99,9 [4BE3AB46] [306EB0BE]
16 100,0 [A5383AE6] [CCF0386F]
17 99,9 [4A17B376] [129E94DE]
18 100,0 [09134011] [9F3F435A]
19 99,9 [6657EC08] [C70B4227]
20 100,0 [8656C17E] 48EE1CF

http://i58.fastpic.ru/big/2015/0512/b1/81b32b38f683df3a773637b61ec13ab1.jpg

Track List CD46 - T-Bone Walker, Jimmy Witherspoon:

01. T-Bone Walker - They Call It Stormy Monday [03:02]
02. T-Bone Walker - It's A Low Down Dirty Deal [02:55]
03. T-Bone Walker - Bobby Sox Blues [02:40]
04. T-Bone Walker - Mean Old World [02:55]
05. T-Bone Walker - Evening [03:29]
06. T-Bone Walker - Long Skirt Baby Blues [02:52]
07. T-Bone Walker - Midnight Blues [02:45]
08. T-Bone Walker - I'm Still In Love With You [02:54]
09. T-Bone Walker - Low Down Dirty Shame (Married Woman Blues) [02:38]
10. T-Bone Walker - T-Bone Jumps Again [02:44]
11. Jimmy Witherspoon - I'm Just A Lady's Man [02:26]
12. Jimmy Witherspoon - Love My Baby [02:42]
13. Jimmy Witherspoon - Love And Friendship [03:10]
14. Jimmy Witherspoon - Geneva Blues aka Evil Woman [02:26]
15. Jimmy Witherspoon - I'm Just Wandering (Part 1) [02:38]
16. Jimmy Witherspoon - I'm Just Wandering (Part 2) [02:27]
17. Jimmy Witherspoon - Good Jumping aka Jump Children [02:46]
18. Jimmy Witherspoon - Thelma Lee Blues [02:39]
19. Jimmy Witherspoon - The Doctor Knows His Business aka Doctor Blues [02:12]
20. Jimmy Witherspoon - Slow Your Speed [03:00]

Exact Audio Copy V1.0 beta 3 from 29. August 2011

EAC extraction logfile from 5. April 2015, 22:08

Various / ABC Of The Blues CD46

Used drive : PLEXTOR BD-R PX-B940SA Adapter: 5 ID: 0

Read mode : Secure
Utilize accurate stream : Yes
Defeat audio cache : Yes
Make use of C2 pointers : No

Read offset correction

: 667
Overread into Lead-In and Lead-Out : No
Fill up missing offset samples with silence : Yes
Delete leading and trailing silent blocks : No
Null samples used in CRC calculations : Yes
Used interface
: Installed external ASPI interface

Used output format : User Defined Encoder
Selected bitrate : 128 kBit/s
Quality : High
Add ID3 tag : Yes
Command line compressor : G:\Program Files (x86)\Exact Audio Copy\Flac\flac.exe
Additional command line options : -V -8 -T "Date=%year%" -T "Genre=%genre%" %source%

TOC of the extracted CD Track | Start | Length | Start sector | End sector
1 | 0:00.00 | 3:01.62 | 0 | 13636 2 | 3:01.62 | 2:54.30 | 13637 | 26716 3 | 5:56.17 | 2:39.40 | 26717 | 38681 4 | 8:35.57 | 2:54.34 | 38682 | 51765 5 | 11:30.16 | 3:28.48 | 51766 | 67413 6 | 14:58.64 | 2:51.18 | 67414 | 80256 7 | 17:50.07 | 2:44.29 | 80257 | 92585 8 | 20:34.36 | 2:53.69 | 92586 | 105629 9 | 23:28.30 | 2:37.21 | 105630 | 117425
10 | 26:05.51 | 2:43.57 | 117426 | 129707
11 | 28:49.33 | 2:25.56 | 129708 | 140638
12 | 31:15.14 | 2:41.45 | 140639 | 152758
13 | 33:56.59 | 3:09.08 | 152759 | 166941
14 | 37:05.67 | 2:25.48 | 166942 | 177864
15 | 39:31.40 | 2:37.19 | 177865 | 189658
16 | 42:08.59 | 2:26.40 | 189659 | 200648
17 | 44:35.24 | 2:45.72 | 200649 | 213095
18 | 47:21.21 | 2:38.65 | 213096 | 225010
19 | 50:00.11 | 2:11.49 | 225011 | 234884
20 | 52:11.60 | 2:59.01 | 234885 | 248310

Range status and errors

Selected range Filename D:\MUSIC\Various - ABC Of The Blues CD46.wav Peak level 100.0 %
Extraction speed 4.7 X
Range quality 100.0 %
Test CRC DDC8D2FB
Copy CRC DDC8D2FB
Copy OK

No errors occurred


AccurateRip summary

Track 1 accurately ripped (confidence 10) [FB142AD1] (AR v2)
Track 2 accurately ripped (confidence 10) [A47B9FA2] (AR v2)
Track 3 accurately ripped (confidence 10) [67752418] (AR v2)
Track 4 accurately ripped (confidence 10) [E0DE85E7] (AR v2)
Track 5 accurately ripped (confidence 10) [465056C5] (AR v2)
Track 6 accurately ripped (confidence 10) [DFBA4917] (AR v2)
Track 7 accurately ripped (confidence 10) [47EEA5DE] (AR v2)
Track 8 accurately ripped (confidence 10) [69FA7D8E] (AR v2)
Track 9 accurately ripped (confidence 10) [891DBBB9] (AR v2)
Track 10 accurately ripped (confidence 10) [E437EC57] (AR v2)
Track 11 accurately ripped (confidence 10) [DCEB7AC7] (AR v2)
Track 12 accurately ripped (confidence 10) [A3353807] (AR v2)
Track 13 accurately ripped (confidence 10) [052EFB39] (AR v2)
Track 14 accurately ripped (confidence 10) [C82EFFF7] (AR v2)
Track 15 accurately ripped (confidence 10) [F0E1BD6F] (AR v2)
Track 16 accurately ripped (confidence 10) [28CA4E96] (AR v2)
Track 17 accurately ripped (confidence 10) [16F701B4] (AR v2)
Track 18 accurately ripped (confidence 10) [EC02BFB8] (AR v2)
Track 19 accurately ripped (confidence 10) [76E72D92] (AR v2)
Track 20 accurately ripped (confidence 10) [A16D4AE1] (AR v2)

All tracks accurately ripped

End of status report

==== Log checksum 85AC41D8ED3A4E31D82B77516C6B10A68CBF8EFD2195514FFE8EFEBFDFF47178 ====

foobar2000 1.2.6 / Dynamic Range Meter 1.1.1
log date: 2015-05-10 17:21:35

------
Analyzed: Jimmy Witherspoon / ABC Of The Blues CD46
------

DR Peak RMS Duration Track
------
DR12 0.00 dB -14.32 dB 2:26 11-I'm Just A Lady's Man
DR11 0.00 dB -13.57 dB 2:42 12-Love My Baby
DR13 0.00 dB -15.26 dB 3:09 13-Love And Friendship
DR13 0.00 dB -15.39 dB 2:26 14-Geneva Blues aka Evil Woman
DR13 0.00 dB -16.26 dB 2:37 15-I'm Just Wandering (Part 1)
DR13 0.00 dB -16.48 dB 2:27 16-I'm Just Wandering (Part 2)
DR11 0.00 dB -13.50 dB 2:46 17-Good Jumping aka Jump Children
DR13 0.00 dB -16.20 dB 2:39 18-Thelma Lee Blues
DR10 0.00 dB -12.62 dB 2:12 19-The Doctor Knows His Business aka Doctor Blues
DR14 0.00 dB -15.55 dB 2:59 20-Slow Your Speed
------

Number of tracks: 10
Official DR value: DR12

Samplerate: 44100 Hz
Channels: 2
Bits per sample: 16
Bitrate: 506 kbps
Codec: FLAC

------
Analyzed: T-Bone Walker / ABC Of The Blues CD46
------

DR Peak RMS Duration Track
------
DR14 0.00 dB -17.77 dB 3:02 01-They Call It Stormy Monday
DR13 0.00 dB -17.00 dB 2:54 02-It's A Low Down Dirty Deal
DR14 0.00 dB -17.83 dB 2:40 03-Bobby Sox Blues
DR12 0.00 dB -17.43 dB 2:54 04-Mean Old World
DR13 -0.05 dB -17.35 dB 3:29 05-Evening
DR12 0.00 dB -13.93 dB 2:51 06-Long Skirt Baby Blues
DR13 0.00 dB -14.86 dB 2:44 07-Midnight Blues
DR10 0.00 dB -14.05 dB 2:54 08-I'm Still In Love With You
DR11 0.00 dB -12.91 dB 2:37 09-Low Down Dirty Shame (Married Woman Blues)
DR12 0.00 dB -13.89 dB 2:44 10-T-Bone Jumps Again
------

Number of tracks: 10
Official DR value: DR12

Samplerate: 44100 Hz
Channels: 2
Bits per sample: 16
Bitrate: 506 kbps
Codec: FLAC

[CUETools log; Date: 10.05.2015 17:12:12; Version: 2.1.5]
[CTDB TOCID: 5TfzfBKVQ2xeBFENLLAk9mganW0-] found.
Track | CTDB Status
1 | (15/15) Accurately ripped
2 | (15/15) Accurately ripped
3 | (15/15) Accurately ripped
4 | (15/15) Accurately ripped
5 | (15/15) Accurately ripped
6 | (15/15) Accurately ripped
7 | (15/15) Accurately ripped
8 | (15/15) Accurately ripped
9 | (15/15) Accurately ripped
10 | (15/15) Accurately ripped
11 | (15/15) Accurately ripped
12 | (15/15) Accurately ripped
13 | (15/15) Accurately ripped
14 | (15/15) Accurately ripped
15 | (15/15) Accurately ripped
16 | (15/15) Accurately ripped
17 | (15/15) Accurately ripped
18 | (15/15) Accurately ripped
19 | (15/15) Accurately ripped
20 | (15/15) Accurately ripped
[AccurateRip ID: 0028cbe7-0251fb0c-010cee14] found.
Track [ CRC | V2 ] Status
01 [2fdb1886|fb142ad1] (00+10/21) Accurately ripped
02 [4d915225|a47b9fa2] (00+10/21) Accurately ripped
03 [9975d713|67752418] (00+10/21) Accurately ripped
04 d51f5b3|e0de85e7 (00+10/21) Accurately ripped
05 b8a93e9|465056c5 (00+10/21) Accurately ripped
06 [d08f96af|dfba4917] (00+10/21) Accurately ripped
07 [59b073d2|47eea5de] (00+10/21) Accurately ripped
08 [e58330cd|69fa7d8e] (00+10/21) Accurately ripped
09 [8b62a1ef|891dbbb9] (00+10/21) Accurately ripped
10 [aa440b50|e437ec57] (00+10/21) Accurately ripped
11 [c3faab5d|dceb7ac7] (00+10/22) Accurately ripped
12 [f7a18839|a3353807] (00+10/22) Accurately ripped
13 [d6a6deaf|052efb39] (00+10/22) Accurately ripped
14 [993f1a9a|c82efff7] (00+10/22) Accurately ripped
15 [e1e2b98a|f0e1bd6f] (00+10/22) Accurately ripped
16 [288dbf37|28ca4e96] (00+10/22) Accurately ripped
17 [653bc8f2|16f701b4] (00+10/22) Accurately ripped
18 [4d8999c0|ec02bfb8] (00+10/22) Accurately ripped
19 966d416|76e72d92 (00+10/22) Accurately ripped
20 [33c4de3f|a16d4ae1] (00+10/22) Accurately ripped
Offsetted by 628:
01 [fa3a84bc] (02/21) Accurately ripped
02 [7f18f8e5] (02/21) Accurately ripped
03 [51378def] (02/21) Accurately ripped
04 [ce3ee42f] (02/21) Accurately ripped
05 [34aaa401] (02/21) Accurately ripped
06 [4fa979c3] (02/21) Accurately ripped
07 [56c1d40e] (02/21) Accurately ripped
08 [5f28ece9] (02/21) Accurately ripped
09 [e783987f] (02/21) Accurately ripped
10 [702073d4] (02/21) Accurately ripped
11 [f6b011bd] (02/22) Accurately ripped
12 [50f37abd] (02/22) Accurately ripped
13 [464fdcdb] (02/22) Accurately ripped
14 [f894e5de] (02/22) Accurately ripped
15 [64a7e7ba] (02/22) Accurately ripped
16 [42511707] (02/22) Accurately ripped
17 [cdccb436] (02/22) Accurately ripped
18 [9d136b2b] (02/22) Accurately ripped
19 [925f8493] (02/22) Accurately ripped
20 [9fb0a4e3] (02/22) Accurately ripped
Offsetted by 664:
01 [3452e62a] (02/21) Accurately ripped
02 [1e78cca5] (02/21) Accurately ripped
03 [434acfdb] (02/21) Accurately ripped
04 [772a3b3b] (02/21) Accurately ripped
05 [660144b9] (02/21) Accurately ripped
06 [f85ff407] (02/21) Accurately ripped
07 [09f3bdda] (02/21) Accurately ripped
08 [613dd715] (02/21) Accurately ripped
09 [0883dacf] (02/21) Accurately ripped
10 [4c2eb7c8] (02/21) Accurately ripped
11 [eaeb629d] (03/22) Accurately ripped
12 [3232e0b1] (03/22) Accurately ripped
13 [a664f6d7] (03/22) Accurately ripped
14 [d5484992] (03/22) Accurately ripped
15 [7c753f2a] (03/22) Accurately ripped
16 [d9ce6d97] (03/22) Accurately ripped
17 [9c5ab7ea] (03/22) Accurately ripped
18 88ab53f (03/22) Accurately ripped
19 [e3403bdb] (03/22) Accurately ripped
20 [61647a77] (03/22) Accurately ripped

Track Peak [ CRC32 ] [W/O NULL] [ LOG ]
-- 100,0 [DDC8D2FB] [9659F1A8] CRC32
01 99,9 [D7F54BA4] [176CD356]
02 100,0 [493625E3] 4BDD950
03 100,0 [0F5D53B4] [4D23CDC3]
04 99,9 [13883695] [8932829F]
05 99,3 [A75D6EBE] [2644B155]
06 99,9 [4104A81E] [53D10A7E]
07 100,0 [CBB927EB] [4B41E9A3]
08 100,0 [C659915F] [0CC5198F]
09 100,0 [41858E12] [C7965A31]
10 100,0 [F4933E62] 8D807AF
11 99,9 [28B9504C] [7D13597E]
12 99,9 [3D3421CD] [5D8AC121]
13 99,9 [09A777AF] [6E02DC91]
14 100,0 [58171567] [DA70A478]
15 99,9 16EEB46 [AAB17FA0]
16 100,0 [DB50F357] [E4141A29]
17 100,0 [078E8C09] [E35A1CCD]
18 100,0 [39079A99] [68AA0A4A]
19 100,0 [11D943B4] [A5DD197A]
20 100,0 [7971B8E8] [1C0A9FE6]

http://i47.fastpic.ru/big/2015/0512/94/17f48f82b1bb1cae338a06fc760a8a94.jpg

Track List CD47 - Muddy Waters, Junior Wells:

01. Muddy Waters - Country Blues [03:25]
02. Muddy Waters - I Be's Troubled [03:06]
03. Muddy Waters - Burr Clover Farm Blues [02:56]
04. Muddy Waters - Take A Walk With Me [03:02]
05. Muddy Waters - Burr Clover Blues [03:12]
06. Muddy Waters - Walking Blues [02:57]
07. Muddy Waters - I Can't Be Satisfied [02:43]
08. Muddy Waters - Gypsy Woman [02:35]
09. Muddy Waters - I Feel Like Going Home [03:10]
10. Muddy Waters - Little Anna Mae [02:34]
11. Junior Wells - Hoodoo Man [03:09]
12. Junior Wells - Junior's Wail [02:56]
13. Junior Wells - Tomorrow Night [02:30]
14. Junior Wells - Please Throw This Poor Dog A Bone [02:32]
15. Junior Wells - Blues Hit Big Town [03:00]
16. Junior Wells - Bout The Break Of Day [03:18]
17. Junior Wells - So All Alone [03:23]
18. Junior Wells - Cut That Out [02:54]
19. Junior Wells - Ways Like An Angel [03:19]
20. Junior Wells - Lord Lord [02:43]

Exact Audio Copy V1.0 beta 3 from 29. August 2011

EAC extraction logfile from 5. April 2015, 22:08

Various / ABC of the Blues CD47

Used drive : PLEXTOR DVDR PX-860A Adapter: 4 ID: 0

Read mode : Secure
Utilize accurate stream : Yes
Defeat audio cache : Yes
Make use of C2 pointers : No

Read offset correction

: 96
Overread into Lead-In and Lead-Out : No
Fill up missing offset samples with silence : Yes
Delete leading and trailing silent blocks : No
Null samples used in CRC calculations : Yes
Used interface
: Installed external ASPI interface

Used output format : User Defined Encoder
Selected bitrate : 128 kBit/s
Quality : High
Add ID3 tag : Yes
Command line compressor : G:\Program Files (x86)\Exact Audio Copy\Flac\flac.exe
Additional command line options : -V -8 -T "Date=%year%" -T "Genre=%genre%" %source%

TOC of the extracted CD Track | Start | Length | Start sector | End sector
1 | 0:00.00 | 3:24.24 | 0 | 15323 2 | 3:24.24 | 3:05.06 | 15324 | 29204 3 | 6:29.30 | 2:55.71 | 29205 | 42400 4 | 9:25.26 | 3:01.35 | 42401 | 56010 5 | 12:26.61 | 3:11.31 | 56011 | 70366 6 | 15:38.17 | 2:56.41 | 70367 | 83607 7 | 18:34.58 | 2:42.71 | 83608 | 95828 8 | 21:17.54 | 2:34.31 | 95829 | 107409 9 | 23:52.10 | 3:09.42 | 107410 | 121626
10 | 27:01.52 | 2:34.00 | 121627 | 133176
11 | 29:35.52 | 3:08.47 | 133177 | 147323
12 | 32:44.24 | 2:55.58 | 147324 | 160506
13 | 35:40.07 | 2:29.32 | 160507 | 171713
14 | 38:09.39 | 2:31.40 | 171714 | 183078
15 | 40:41.04 | 2:59.03 | 183079 | 196506
16 | 43:40.07 | 3:17.60 | 196507 | 211341
17 | 46:57.67 | 3:22.39 | 211342 | 226530
18 | 50:20.31 | 2:53.68 | 226531 | 239573
19 | 53:14.24 | 3:18.18 | 239574 | 254441
20 | 56:32.42 | 2:42.58 | 254442 | 266649

Range status and errors

Selected range Filename D:\MUSIC\Various - ABC of the Blues CD47.wav Peak level 100.0 %
Extraction speed 7.7 X
Range quality 100.0 %
Test CRC 90BDB444
Copy CRC 90BDB444
Copy OK

No errors occurred


AccurateRip summary

Track 1 accurately ripped (confidence 14) [93289380] (AR v2)
Track 2 accurately ripped (confidence 14) [22667F04] (AR v2)
Track 3 accurately ripped (confidence 14) [1236F4C2] (AR v2)
Track 4 accurately ripped (confidence 14) [F7B57451] (AR v2)
Track 5 accurately ripped (confidence 14) [57E9D038] (AR v2)
Track 6 accurately ripped (confidence 14) [384BE168] (AR v2)
Track 7 accurately ripped (confidence 14) [00A436A4] (AR v2)
Track 8 accurately ripped (confidence 14) [C942EEEA] (AR v2)
Track 9 accurately ripped (confidence 14) [20CEDA98] (AR v2)
Track 10 accurately ripped (confidence 14) [473D1A16] (AR v2)
Track 11 accurately ripped (confidence 14) [7F4077A7] (AR v2)
Track 12 accurately ripped (confidence 14) [0BB9FF7A] (AR v2)
Track 13 accurately ripped (confidence 14) [365039F4] (AR v2)
Track 14 accurately ripped (confidence 14) [F18A1133] (AR v2)
Track 15 accurately ripped (confidence 14) [AFD159A4] (AR v2)
Track 16 accurately ripped (confidence 13) [C27923EB] (AR v2)
Track 17 accurately ripped (confidence 14) [64863FB2] (AR v2)
Track 18 accurately ripped (confidence 14) [AF78609F] (AR v2)
Track 19 accurately ripped (confidence 14) [E62FC6FE] (AR v2)
Track 20 accurately ripped (confidence 14) [17B6F590] (AR v2)

All tracks accurately ripped

End of status report

==== Log checksum 300AEFADBB4042BA020A2B89343B81A7ED119A5D8298DCBD1362C372848A6C34 ====

foobar2000 1.2.6 / Dynamic Range Meter 1.1.1
log date: 2015-05-10 17:22:25

------
Analyzed: Junior Wells / ABC of the Blues CD47
------

DR Peak RMS Duration Track
------
DR12 0.00 dB -13.48 dB 3:09 11-Hoodoo Man
DR11 0.00 dB -12.31 dB 2:56 12-Junior's Wail
DR10 0.00 dB -11.89 dB 2:29 13-Tomorrow Night
DR10 0.00 dB -13.15 dB 2:32 14-Please Throw This Poor Dog A Bone
DR10 0.00 dB -11.84 dB 2:59 15-Blues Hit Big Town
DR8 0.00 dB -10.25 dB 3:18 16-Bout The Break Of Day
DR11 0.00 dB -12.75 dB 3:23 17-So All Alone
DR11 0.00 dB -12.34 dB 2:54 18-Cut That Out
DR11 0.00 dB -13.18 dB 3:18 19-Ways Like An Angel
DR10 0.00 dB -11.92 dB 2:43 20-Lord Lord
------

Number of tracks: 10
Official DR value: DR10

Samplerate: 44100 Hz
Channels: 2
Bits per sample: 16
Bitrate: 550 kbps
Codec: FLAC

------
Analyzed: Muddy Waters / ABC of the Blues CD47
------

DR Peak RMS Duration Track
------
DR17 0.00 dB -21.29 dB 3:24 01-Country Blues
DR18 0.00 dB -23.19 dB 3:05 02-I Be's Troubled
DR15 0.00 dB -17.85 dB 2:56 03-Burr Clover Farm Blues
DR17 0.00 dB -20.28 dB 3:01 04-Take A Walk With Me
DR19 0.00 dB -23.12 dB 3:11 05-Burr Clover Blues
DR17 0.00 dB -18.82 dB 2:57 06-Walking Blues
DR17 0.00 dB -19.32 dB 2:43 07-I Can't Be Satisfied
DR13 0.00 dB -14.77 dB 2:34 08-Gypsy Woman
DR13 0.00 dB -16.41 dB 3:10 09-I Feel Like Going Home
DR14 0.00 dB -18.01 dB 2:34 10-Little Anna Mae
------

Number of tracks: 10
Official DR value: DR16

Samplerate: 44100 Hz
Channels: 2
Bits per sample: 16
Bitrate: 550 kbps
Codec: FLAC

[CUETools log; Date: 10.05.2015 17:12:35; Version: 2.1.5]
[CTDB TOCID: T5tyXYj8d3Dx.7WXcYtZC5Vi_Ik-] found.
Track | CTDB Status
1 | (16/16) Accurately ripped
2 | (16/16) Accurately ripped
3 | (16/16) Accurately ripped
4 | (16/16) Accurately ripped
5 | (16/16) Accurately ripped
6 | (16/16) Accurately ripped
7 | (16/16) Accurately ripped
8 | (16/16) Accurately ripped
9 | (16/16) Accurately ripped
10 | (16/16) Accurately ripped
11 | (16/16) Accurately ripped
12 | (16/16) Accurately ripped
13 | (16/16) Accurately ripped
14 | (16/16) Accurately ripped
15 | (16/16) Accurately ripped
16 | (16/16) Accurately ripped
17 | (16/16) Accurately ripped
18 | (16/16) Accurately ripped
19 | (16/16) Accurately ripped
20 | (16/16) Accurately ripped
[AccurateRip ID: 002aead5-02725d74-1b0de314] found.
Track [ CRC | V2 ] Status
01 [a90e2dc1|93289380] (02+14/21) Accurately ripped
02 [d9361abc|22667f04] (02+14/21) Accurately ripped
03 [6ea1320b|1236f4c2] (02+14/21) Accurately ripped
04 [2296dca5|f7b57451] (02+14/21) Accurately ripped
05 [66b48802|57e9d038] (02+14/21) Accurately ripped
06 [07fbd04b|384be168] (02+14/21) Accurately ripped
07 [e7b0363d|00a436a4] (02+14/21) Accurately ripped
08 [fe2cea05|c942eeea] (02+14/21) Accurately ripped
09 [1b7c80e7|20ceda98] (02+14/21) Accurately ripped
10 eef3449|473d1a16 (02+14/21) Accurately ripped
11 [0aea2a39|7f4077a7] (02+14/22) Accurately ripped
12 [93de805e|0bb9ff7a] (02+14/22) Accurately ripped
13 [e70408a5|365039f4] (02+14/22) Accurately ripped
14 [077fb0a5|f18a1133] (02+14/22) Accurately ripped
15 347d491|afd159a4 (02+14/22) Accurately ripped
16 [3ea864ae|c27923eb] (02+13/21) Accurately ripped
17 [24571f24|64863fb2] (02+14/22) Accurately ripped
18 [d8223fb1|af78609f] (02+14/22) Accurately ripped
19 [91443688|e62fc6fe] (02+14/22) Accurately ripped
20 [824658a9|17b6f590] (02+14/22) Accurately ripped
Offsetted by 664:
01 [17d56342] (02/21) Accurately ripped
02 [2210b924] (02/21) Accurately ripped
03 [77567293] (02/21) Accurately ripped
04 [fdaf13ad] (02/21) Accurately ripped
05 [76152322] (02/21) Accurately ripped
06 [6b1b2c83] (02/21) Accurately ripped
07 3d4d29d (02/21) Accurately ripped
08 [4ff8c085] (02/21) Accurately ripped
09 [3a50b0a7] (02/21) Accurately ripped
10 [12074ce9] (02/21) Accurately ripped
11 [460651a1] (03/22) Accurately ripped
12 [0b11da46] (03/22) Accurately ripped
13 [16c3125d] (03/22) Accurately ripped
14 [6b38067d] (03/22) Accurately ripped
15 [1202ac79] (03/22) Accurately ripped
16 [2b29936e] (03/21) Accurately ripped
17 [9365a05c] (03/22) Accurately ripped
18 [ab0aedf9] (03/22) Accurately ripped
19 [d78b5c80] (03/22) Accurately ripped
20 [ea53f399] (03/22) Accurately ripped

Track Peak [ CRC32 ] [W/O NULL] [ LOG ]
-- 100,0 [90BDB444] [11E600FA] CRC32
01 100,0 [09F6074F] [E141727F]
02 100,0 [7EE37232] [1FECC3D4]
03 100,0 [8720C092] [8B73D19F]
04 100,0 [452B3AB6] [05C3A93C]
05 99,9 [1CD81223] [993545B4]
06 100,0 [95A7281F] [4228B32C]
07 100,0 [6F95F48F] [557946C3]
08 100,0 [DAC4D8D2] [3A85DC48]
09 99,9 [01A6C1AC] [AA9C98CC]
10 99,9 [010EE9FD] 126944E
11 99,9 [8A4C583C] [EC3AEF0B]
12 100,0 [2E661E06] [EB5E2D10]
13 99,9 [942C01B3] [4EF726FF]
14 100,0 [CBA6C6EC] [6C748FCB]
15 99,9 [F08FCF16] [44B220BE]
16 99,9 [13D26902] [9B5800F3]
17 99,9 [3E954D45] [084DBD25]
18 100,0 [E0B4E394] [651CEFB1]
19 99,9 [9F127AD6] [92A2C349]
20 100,0 [5ABAFD01] [087F614E]

http://i60.fastpic.ru/big/2015/0512/6c/474fa656617e8baed874872077a85a6c.jpg

Track List CD48 - Sippie Wallace, Peetie Wheatstraw:

01. Sippie Wallace - I'm A Mighty Tight Woman [02:56]
02. Sippie Wallace - Murder's Gonna Be My Crime [03:01]
03. Sippie Wallace - Suitcase Blues [02:41]
04. Sippie Wallace - Special Delivery Blues [03:25]
05. Sippie Wallace - The Flood Blues [03:13]
06. Sippie Wallace - Dead Drunk Blues [03:22]
07. Sippie Wallace - A Man For Every Day In The Week [03:13]
08. Sippie Wallace - Jack Of Diamond Blues [03:09]
09. Sippie Wallace - A Jealous Woman Like Me [03:13]
10. Sippie Wallace - The Mail Train Blues [02:58]
11. Peetie Wheatstraw - Devil's Son-In-Law [03:26]
12. Peetie Wheatstraw - Shake That Thing [02:45]
13. Peetie Wheatstraw - Gangster's Blues [02:46]
14. Peetie Wheatstraw - Come Over And See Me [03:01]
15. Peetie Wheatstraw - Cake Alley [03:10]
16. Peetie Wheatstraw - Shack Bully Stomp [02:40]
17. Peetie Wheatstraw - Tight Time Project [03:10]
18. Peetie Wheatstraw - Working On The Project [03:13]
19. Peetie Wheatstraw - Weeping Willow Blues [02:52]
20. Peetie Wheatstraw - Peetie Wheatstraw Stomp [02:35]

Exact Audio Copy V1.0 beta 3 from 29. August 2011

EAC extraction logfile from 5. April 2015, 22:27

Various / ABC Of The Blues CD48

Used drive : PLEXTOR DVDR PX-860A Adapter: 4 ID: 0

Read mode : Secure
Utilize accurate stream : Yes
Defeat audio cache : Yes
Make use of C2 pointers : No

Read offset correction

: 96
Overread into Lead-In and Lead-Out : No
Fill up missing offset samples with silence : Yes
Delete leading and trailing silent blocks : No
Null samples used in CRC calculations : Yes
Used interface
: Installed external ASPI interface

Used output format : User Defined Encoder
Selected bitrate : 128 kBit/s
Quality : High
Add ID3 tag : Yes
Command line compressor : G:\Program Files (x86)\Exact Audio Copy\Flac\flac.exe
Additional command line options : -V -8 -T "Date=%year%" -T "Genre=%genre%" %source%

TOC of the extracted CD Track | Start | Length | Start sector | End sector
1 | 0:00.00 | 2:55.73 | 0 | 13197 2 | 2:55.73 | 3:00.38 | 13198 | 26735 3 | 5:56.36 | 2:40.29 | 26736 | 38764 4 | 8:36.65 | 3:24.51 | 38765 | 54115 5 | 12:01.41 | 3:12.24 | 54116 | 68539 6 | 15:13.65 | 3:21.73 | 68540 | 83687 7 | 18:35.63 | 3:12.31 | 83688 | 98118 8 | 21:48.19 | 3:08.60 | 98119 | 112278 9 | 24:57.04 | 3:12.44 | 112279 | 126722
10 | 28:09.48 | 2:57.44 | 126723 | 140041
11 | 31:07.17 | 3:25.41 | 140042 | 155457
12 | 34:32.58 | 2:44.38 | 155458 | 167795
13 | 37:17.21 | 2:45.26 | 167796 | 180196
14 | 40:02.47 | 3:00.74 | 180197 | 193770
15 | 43:03.46 | 3:09.05 | 193771 | 207950
16 | 46:12.51 | 2:39.23 | 207951 | 219898
17 | 48:51.74 | 3:09.22 | 219899 | 234095
18 | 52:01.21 | 3:12.15 | 234096 | 248510
19 | 55:13.36 | 2:51.46 | 248511 | 261381
20 | 58:05.07 | 2:34.18 | 261382 | 272949

Range status and errors

Selected range Filename D:\MUSIC\Various - ABC Of The Blues CD48.wav Peak level 100.0 %
Extraction speed 7.8 X
Range quality 100.0 %
Test CRC 8E71FADA
Copy CRC 8E71FADA
Copy OK

No errors occurred


AccurateRip summary

Track 1 accurately ripped (confidence 10) [669B878B] (AR v2)
Track 2 accurately ripped (confidence 10) [930B2793] (AR v2)
Track 3 accurately ripped (confidence 10) [A05D04B1] (AR v2)
Track 4 accurately ripped (confidence 10) [A0AE0CF5] (AR v2)
Track 5 accurately ripped (confidence 10) [441EE338] (AR v2)
Track 6 accurately ripped (confidence 10) [5747AE28] (AR v2)
Track 7 accurately ripped (confidence 10) [D4586150] (AR v2)
Track 8 accurately ripped (confidence 10) [4A23223D] (AR v2)
Track 9 accurately ripped (confidence 10) [6248E6E5] (AR v2)
Track 10 accurately ripped (confidence 10) [1B1501A1] (AR v2)
Track 11 accurately ripped (confidence 10) [17314E25] (AR v2)
Track 12 accurately ripped (confidence 10) [A7FFB378] (AR v2)
Track 13 accurately ripped (confidence 10) 88F766F (AR v2)
Track 14 accurately ripped (confidence 10) D6B3909 (AR v2)
Track 15 accurately ripped (confidence 10) [2AAFEB52] (AR v2)
Track 16 accurately ripped (confidence 10) [E723A4BB] (AR v2)
Track 17 accurately ripped (confidence 10) [1185BBAD] (AR v2)
Track 18 accurately ripped (confidence 10) [71122217] (AR v2)
Track 19 accurately ripped (confidence 10) [6EB52999] (AR v2)
Track 20 accurately ripped (confidence 10) [F9FD20EC] (AR v2)

All tracks accurately ripped

End of status report

==== Log checksum 725DBFA6E0720CFA80465D38406653845CA90DE1C8B5A520A6FF3E71481DC76E ====

foobar2000 1.2.6 / Dynamic Range Meter 1.1.1
log date: 2015-05-10 17:23:29

------
Analyzed: Peetie Wheatstraw / ABC Of The Blues CD48
------

DR Peak RMS Duration Track
------
DR14 -0.14 dB -17.69 dB 3:26 11-Devil's Son-In-Law
DR13 0.00 dB -15.94 dB 2:45 12-Shake That Thing
DR12 -0.84 dB -15.31 dB 2:45 13-Gangster's Blues
DR14 -0.14 dB -16.31 dB 3:01 14-Come Over And See Me
DR15 -0.66 dB -19.01 dB 3:09 15-Cake Alley
DR14 -1.69 dB -18.05 dB 2:39 16-Shack Bully Stomp
DR14 -0.97 dB -18.46 dB 3:09 17-Tight Time Project
DR12 -2.46 dB -17.41 dB 3:12 18-Working On The Project
DR13 -1.34 dB -18.37 dB 2:52 19-Weeping Willow Blues
DR13 -1.09 dB -16.47 dB 2:34 20-Peetie Wheatstraw Stomp
------

Number of tracks: 10
Official DR value: DR13

Samplerate: 44100 Hz
Channels: 2
Bits per sample: 16
Bitrate: 284 kbps
Codec: FLAC

------
Analyzed: Sippie Wallace / ABC Of The Blues CD48
------

DR Peak RMS Duration Track
------
DR12 0.00 dB -14.56 dB 2:56 01-I'm A Mighty Tight Woman
DR8 0.00 dB -11.39 dB 3:01 02-Murder's Gonna Be My Crime
DR7 0.00 dB -9.72 dB 2:40 03-Suitcase Blues
DR9 0.00 dB -10.98 dB 3:25 04-Special Delivery Blues
DR11 0.00 dB -14.50 dB 3:12 05-The Flood Blues
DR10 0.00 dB -13.68 dB 3:22 06-Dead Drunk Blues
DR10 0.00 dB -12.70 dB 3:12 07-A Man For Every Day In The Week
DR10 0.00 dB -12.25 dB 3:09 08-Jack Of Diamond Blues
DR9 0.00 dB -11.61 dB 3:13 09-A Jealous Woman Like Me
DR9 -0.26 dB -11.66 dB 2:58 10-The Mail Train Blues
------

Number of tracks: 10
Official DR value: DR10

Samplerate: 44100 Hz
Channels: 2
Bits per sample: 16
Bitrate: 284 kbps
Codec: FLAC

[CUETools log; Date: 10.05.2015 17:13:13; Version: 2.1.5]
[CTDB TOCID: Y3o9PiTsIWmyiHifdDYhVYwkwd4-] found.
Track | CTDB Status
1 | (17/17) Accurately ripped
2 | (17/17) Accurately ripped
3 | (17/17) Accurately ripped
4 | (17/17) Accurately ripped
5 | (17/17) Accurately ripped
6 | (17/17) Accurately ripped
7 | (17/17) Accurately ripped
8 | (17/17) Accurately ripped
9 | (17/17) Accurately ripped
10 | (17/17) Accurately ripped
11 | (17/17) Accurately ripped
12 | (17/17) Accurately ripped
13 | (17/17) Accurately ripped
14 | (17/17) Accurately ripped
15 | (17/17) Accurately ripped
16 | (17/17) Accurately ripped
17 | (17/17) Accurately ripped
18 | (17/17) Accurately ripped
19 | (17/17) Accurately ripped
20 | (17/17) Accurately ripped
[AccurateRip ID: 002c5099-02898dbd-250e3714] found.
Track [ CRC | V2 ] Status
01 [28d8388d|669b878b] (00+10/22) Accurately ripped
02 [37124ddc|930b2793] (00+10/22) Accurately ripped
03 43d2b44|a05d04b1 (00+10/22) Accurately ripped
04 [926da717|a0ae0cf5] (00+10/22) Accurately ripped
05 [7598f932|441ee338] (00+10/22) Accurately ripped
06 [93cb341e|5747ae28] (00+10/22) Accurately ripped
07 [da891ac3|d4586150] (00+10/22) Accurately ripped
08 [6c673fbd|4a23223d] (00+10/22) Accurately ripped
09 [e66fa985|6248e6e5] (00+10/22) Accurately ripped
10 [f05f4ef7|1b1501a1] (00+10/22) Accurately ripped
11 [6714e0d3|17314e25] (00+10/22) Accurately ripped
12 [908910f3|a7ffb378] (00+10/22) Accurately ripped
13 [acff155b|b88f766f] (00+10/22) Accurately ripped
14 [2845d0d6|bd6b3909] (00+10/22) Accurately ripped
15 [34e54362|2aafeb52] (00+10/22) Accurately ripped
16 [4d91e827|e723a4bb] (00+10/22) Accurately ripped
17 81cfb21|1185bbad (00+10/22) Accurately ripped
18 [859047e2|71122217] (00+10/22) Accurately ripped
19 [c83ab455|6eb52999] (00+10/22) Accurately ripped
20 [283b3961|f9fd20ec] (00+10/22) Accurately ripped
Offsetted by 628:
01 [2bb8834d] (02/22) Accurately ripped
02 [9cf69520] (02/22) Accurately ripped
03 [36c665c8] (02/22) Accurately ripped
04 [58b9f7bf] (02/22) Accurately ripped
05 [2b6ea326] (02/22) Accurately ripped
06 [3b881dea] (02/22) Accurately ripped
07 [c1a0893f] (02/22) Accurately ripped
08 [dbb4c889] (02/22) Accurately ripped
09 [30274ca1] (02/22) Accurately ripped
10 82ec63f (02/22) Accurately ripped
11 [2bb428bb] (02/22) Accurately ripped
12 [aeb47cb7] (02/22) Accurately ripped
13 [a8a5c373] (02/22) Accurately ripped
14 [820ba65a] (02/22) Accurately ripped
15 [a1b40556] (02/22) Accurately ripped
16 [37a47763] (02/22) Accurately ripped
17 [59d87835] (02/22) Accurately ripped
18 [98a3a1fe] (02/22) Accurately ripped
19 [c79634c9] (02/22) Accurately ripped
20 [e6f2b673] (02/22) Accurately ripped
Offsetted by 664:
01 [faf7eb0d] (03/22) Accurately ripped
02 [942104d4] (03/22) Accurately ripped
03 [0872f3bc] (03/22) Accurately ripped
04 [e4e8bcc7] (03/22) Accurately ripped
05 [912afcca] (03/22) Accurately ripped
06 [cadab106] (03/22) Accurately ripped
07 [ef7c604b] (03/22) Accurately ripped
08 [0fbe1ea5] (03/22) Accurately ripped
09 [a34221cd] (03/22) Accurately ripped
10 [c5447367] (03/22) Accurately ripped
11 [23688003] (03/22) Accurately ripped
12 [9b3caeeb] (03/22) Accurately ripped
13 [315dca2b] (03/22) Accurately ripped
14 [031d834e] (03/22) Accurately ripped
15 [1bb616fa] (03/22) Accurately ripped
16 [7e21742f] (03/22) Accurately ripped
17 [79f1e479] (03/22) Accurately ripped
18 [c904f22a] (03/22) Accurately ripped
19 [10ecfaed] (03/22) Accurately ripped
20 [f97e8fc8] (03/22) Accurately ripped

Track Peak [ CRC32 ] [W/O NULL] [ LOG ]
-- 100,0 [8E71FADA] [711F3AC2] CRC32
01 100,0 [84E99551] [CB7B71AD]
02 100,0 [E5C525E8] [7F363640]
03 100,0 A0BEA03 [EA339EB4]
04 100,0 [40E6D502] [37D3291A]
05 100,0 [785E5D10] [E027F7FC]
06 100,0 [63429E7B] [2A7DEC94]
07 100,0 [30B4C691] [E52ECB5A]
08 99,9 [051DA316] [E52EEA24]
09 99,9 [E723887D] [391ED7C0]
10 97,0 [32EA6356] [CBA391D8]
11 98,4 [092AD25F] [EFD6B8C8]
12 100,0 [948106A5] [FA7AC7C7]
13 90,7 [030FB673] [00D5AD99]
14 98,3 [F7BF93E6] [5EAF72C7]
15 92,6 [41BE4542] [AD9EA566]
16 82,3 [50BA8522] [4E147378]
17 89,3 [60D3FC46] [DFDD0F80]
18 75,3 [6F1E6AA1] [AA9319BB]
19 85,7 [F20202F4] [3B74069F]
20 88,1 6818286 [537A248A]

http://i59.fastpic.ru/big/2015/0512/2b/f80aea1ee3293e3e658f255036dc942b.jpg



DOWNLOAD LINKS:
Buy Premium To Support Me & Get Resumable Support & Max Speed


Links are Interchangeable - No Password - Single Extraction

VA - ABC Of The Blues: The Ultimate Collection From The Delta To The Big Cities (2010) [Vol. 45-48, 52CD Box Set] Fast Download


Ad2

 
 
 
Dear visitor, you went to the site as an unregistered user. We encourage you to register or enter the site under your name.
 
   
 
 (Votes #: 0)