2013Zone For Latest Downloads

 
     
 
Legal Downloads » Music » Tape Five - Tonight Josephine (2010) RE-UPLOAD
Menu
Home Applications
Games Movies
Music TV Shows
Torrents Graphics

Sitemap

RSS
 
Advanced Search
Last News
Site Info
Top Contributors:
  1    supper88 32766
  2    admin 32693
  3    Whisky 10080
  4    Shark_ 8911
  5    creativelivenew 8706
  6    whathesupa 2799
  7    candymypost 840
  8    hvnteam 629
  9    vuong87 3


Articles:
  This Hour: 0
  Today: 0
  This Month: 10
  All Time: 515561


Torrents:
  Today: 0
  Yesterday: 0
  All Time: 156684


Membership:
  Registered Today :0
  This Hour:0
  This Month:0
  Total:14
  Banned:1

{online}
{inform_torrent}
Friend:
We Recomend
Trend
Trend
Ad1

Search In Site

Music : Tape Five - Tonight Josephine (2010) RE-UPLOAD
 
http://i57.fastpic.ru/big/2015/0512/8e/58bc239f2653954318fb5fdf26aa0e8e.jpg

Tape Five - Tonight Josephine (2010)
EAC | Flac(Image) + Cue + Log > 341 Mb | iPod M4A(Tracks) > 343 Mb | MP3 CBR 320Kbps > 128 Mb
Nu-Jazz, Bossa Nova, Lounge | TT - 48:56 | 2011 | Label: TME/DreaMusic | Cat. # 4690475000566 | Ukraine
Scans (Jpg) Included | Scans (Png, 600dpi) > 177 Mb | Nitroflare, Uploadable

"2010 album. And the film goes on! Driving Electro-Swing action with 'Oscar feeling' conversations of clarinet and trumpet inspired by Louis Armstrong, Gene Krupa, Josephine Baker and Benny Goodman. The 3rd album from TAPE FIVE 'Tonight Josephine!' is another Retro-Homage to various facets from the 20th Century bar-music..."


Tracklist:

01. Introduction Back in Time - 00:22
02. A Cool Cat in Town - 03:54
03. Bad Boy Good Man - 04:17
04. Pantaloons - 03:43
05. Dixie Bisquit - 03:49
06. Madame Coquette - 03:43
07. Far Far Away - 04:05
08. Intermezzo Speak Easy - 00:32
09. The Flappers Delight - 03:43
10. Birds like it - 04:19
11. Pousse l'Amour - 04:01
12. The Smurf - 03:40
13. The Sky is not the Limit - 04:10
14. Alcazar - 04:38

Exact Audio Copy V1.0 beta 2 from 29. April 2011

EAC extraction logfile from 28. October 2011, 16:51

Tape Five / Tonight Josephine

Used drive : ASUS DRW-2014L1T Adapter: 2 ID: 0

Read mode : Secure
Utilize accurate stream : Yes
Defeat audio cache : Yes
Make use of C2 pointers : No

Read offset correction

: 6
Overread into Lead-In and Lead-Out : No
Fill up missing offset samples with silence : Yes
Delete leading and trailing silent blocks : No
Null samples used in CRC calculations : Yes
Used interface
: Native Win32 interface for Win NT & 2000

Used output format : User Defined Encoder
Selected bitrate : 768 kBit/s
Quality : High
Add ID3 tag : No
Command line compressor : I:\Program Files\Exact Audio Copy\FLAC\FLAC.EXE
Additional command line options : -V -8 -T "Date=%year%" -T "Genre=%genre%" %source%

TOC of the extracted CD Track | Start | Length | Start sector | End sector
1 | 0:00.00 | 0:22.47 | 0 | 1696 2 | 0:22.47 | 3:54.65 | 1697 | 19311 3 | 4:17.37 | 4:17.09 | 19312 | 38595 4 | 8:34.46 | 3:43.06 | 38596 | 55326 5 | 12:17.52 | 3:49.14 | 55327 | 72515 6 | 16:06.66 | 3:43.12 | 72516 | 89252 7 | 19:50.03 | 4:05.17 | 89253 | 107644 8 | 23:55.20 | 0:32.35 | 107645 | 110079 9 | 24:27.55 | 3:43.01 | 110080 | 126805
10 | 28:10.56 | 4:19.56 | 126806 | 146286
11 | 32:30.37 | 4:01.69 | 146287 | 164430
12 | 36:32.31 | 3:40.14 | 164431 | 180944
13 | 40:12.45 | 4:10.11 | 180945 | 199705
14 | 44:22.56 | 4:38.44 | 199706 | 220599

Range status and errors

Selected range Filename G:\EAC\Oksana_m\Tape Five - Tonight Josephine\Tape Five - Tonight Josephine.wav Peak level 100.0 %
Extraction speed 8.2 X
Range quality 100.0 %
Test CRC D2A517B2
Copy CRC D2A517B2
Copy OK

No errors occurred


AccurateRip summary

Track 1 not present in database
Track 2 not present in database
Track 3 not present in database
Track 4 not present in database
Track 5 not present in database
Track 6 not present in database
Track 7 not present in database
Track 8 not present in database
Track 9 not present in database
Track 10 not present in database
Track 11 not present in database
Track 12 not present in database
Track 13 not present in database
Track 14 not present in database

None of the tracks are present in the AccurateRip database

End of status report

==== Log checksum 8C40F7F1FCA8CE1A7DDAF59779883D0279125E5AFF72DD9B6E4D9AF5E599F07F ====

http://i47.fastpic.ru/big/2015/0512/94/62e8cbab930b3df2eda70edb0b5f1694.jpg


DOWNLOAD LINKS:
Buy Premium To Support Me & Get Resumable Support & Max Speed


Links are Interchangeable - No Password - Single Extraction

Tape Five - Tonight Josephine (2010) RE-UPLOAD Fast Download


Ad2

 
 
 
Dear visitor, you went to the site as an unregistered user. We encourage you to register or enter the site under your name.
 
   
 
 (Votes #: 0)