2013Zone For Latest Downloads

 
     
 
Legal Downloads » Music » Campo Di Marte - Campo Di Marte (1973) [Reissue 2006]
Menu
Home Applications
Games Movies
Music TV Shows
Torrents Graphics

Sitemap

RSS
 
Advanced Search
Last News
Site Info
Top Contributors:
  1    supper88 32766
  2    admin 32711
  3    Whisky 10080
  4    Shark_ 8911
  5    creativelivenew 8706
  6    whathesupa 2799
  7    candymypost 840
  8    hvnteam 629
  9    vuong87 3


Articles:
  This Hour: 0
  Today: 0
  This Month: 0
  All Time: 515501


Torrents:
  Today: 0
  Yesterday: 0
  All Time: 156676


Membership:
  Registered Today :0
  This Hour:0
  This Month:0
  Total:14
  Banned:1

{online}
{inform_torrent}
Friend:
Full Download Scripts
Torrent Download
Trend
Trend

Search In Site

Music : Campo Di Marte - Campo Di Marte (1973) [Reissue 2006]
 
http://i60.fastpic.ru/big/2015/0512/1d/89366c642ad0e168bac42b00243ab71d.jpg

Campo Di Marte - Campo Di Marte (1973) [Reissue 2006]
EAC Rip | FLAC (tracks+.cue+log) - 208 MB | MP3 CBR 320 kbps (LAME 3.93) - 95 MB | Covers - 64 MB
Genre: Progressive Rock | RAR 3% Rec. | Label: MALS (MALS 168), Remastered

"The story of Campo di Marte (named after an area of Florence) is a familiar one in the annals of Italian progressive rock. Like many of their fellow countrymen they released one album and due to a lack of interest and record company promotion split up. In fact the band had already called it a day before the album was released. Nevertheless it remains an important release and well worth seeking out for anyone with more than a passing interest in the genre.
The band was formed in Florence in 1971 by ex-Senso Unico guitarist Enrico Rosa who also composed all the material..."

Tracklist:
01. V Tempo (originally named Prologo Parte I)
02. VI Tempo (originally named Prologo Parte II)
03. VII Tempo (originally named Prologo Parte III)
04. I Tempo (originally named Riflessione Parte I)
05. II Tempo (originally named Riflessione Parte II)
06. III Tempo (originally named Epilogo Parte I)
07. IV tempo (originally named Epilogo Parte II)

Total time: 40:43

Exact Audio Copy V1.0 beta 3 from 29. August 2011

EAC extraction logfile from 8. May 2015, 9:48

Campo Di Marte / Campo Di Marte

Used drive : HL-DT-STDVDRAM GH24NS95 Adapter: 3 ID: 0

Read mode : Secure
Utilize accurate stream : Yes
Defeat audio cache : Yes
Make use of C2 pointers : No

Read offset correction

: 6
Overread into Lead-In and Lead-Out : No
Fill up missing offset samples with silence : Yes
Delete leading and trailing silent blocks : No
Null samples used in CRC calculations : Yes
Used interface
: Native Win32 interface for Win NT & 2000
Gap handling
: Appended to previous track

Used output format : User Defined Encoder
Selected bitrate : 128 kBit/s
Quality : High
Add ID3 tag : Yes
Command line compressor : C:\Program Files\FLAC\flac.exe
Additional command line options : -6 -V -T "ARTIST=%artist%" -T "TITLE=%title%" -T "ALBUM=%albumtitle%" -T "DATE=%year%" -T "TRACKNUMBER=%tracknr%" -T "GENRE=%genre%" -T "COMMENT=%comment%" %hascover%--picture="%coverfile%"%hascover% %source% -o %dest%

TOC of the extracted CD Track | Start | Length | Start sector | End sector
1 | 0:00.00 | 5:57.12 | 0 | 26786 2 | 5:57.12 | 6:04.40 | 26787 | 54126 3 | 12:01.52 | 7:28.70 | 54127 | 87796 4 | 19:30.47 | 8:02.40 | 87797 | 123986 5 | 27:33.12 | 3:24.15 | 123987 | 139301 6 | 30:57.27 | 6:19.53 | 139302 | 167779 7 | 37:17.05 | 3:11.72 | 167780 | 182176

Track 1 Filename F:\Extract Audio Copy\by fovit\01 - V Tempo (Prologo Parte I).wav Pre-gap length 0:00:02.00 Peak level 87.6 %
Extraction speed 1.7 X
Track quality 100.0 %
Copy CRC 5E1E3444
Accurately ripped (confidence 3) [1A5DEB28] (AR v2)
Copy OK

Track 2 Filename F:\Extract Audio Copy\by fovit\02 - VI Tempo (Prologo Parte II).wav Peak level 72.2 %
Extraction speed 1.2 X
Track quality 99.9 %
Copy CRC A849817D
Accurately ripped (confidence 3) [7354A92D] (AR v2)
Copy OK

Track 3 Filename F:\Extract Audio Copy\by fovit\03 - VII Tempo (Prologo Parte III).wav Peak level 88.6 %
Extraction speed 1.5 X
Track quality 100.0 %
Copy CRC 3DA7E44A
Accurately ripped (confidence 3) [3EDA2359] (AR v2)
Copy OK

Track 4 Filename F:\Extract Audio Copy\by fovit\04 - I Tempo (Riflessione Parte I).wav Peak level 93.5 %
Extraction speed 1.7 X
Track quality 100.0 %
Copy CRC 462A5B43
Accurately ripped (confidence 3) [385B7C74] (AR v2)
Copy OK

Track 5 Filename F:\Extract Audio Copy\by fovit\05 - II Tempo (Riflessione Parte II).wav Peak level 62.2 %
Extraction speed 1.4 X
Track quality 99.9 %
Copy CRC ED47781D
Accurately ripped (confidence 3) [3F300050] (AR v2)
Copy OK

Track 6 Filename F:\Extract Audio Copy\by fovit\06 - III Tempo (Epilogo Parte I).wav Peak level 89.0 %
Extraction speed 1.8 X
Track quality 100.0 %
Copy CRC 5B180A23
Accurately ripped (confidence 3) [1E387186] (AR v2)
Copy OK

Track 7 Filename F:\Extract Audio Copy\by fovit\07 - IV Tempo (Epilogo Parte II).wav Peak level 76.8 %
Extraction speed 1.8 X
Track quality 100.0 %
Copy CRC AACECCA8
Accurately ripped (confidence 3) [825EA30F] (AR v2)
Copy OK

All tracks accurately ripped

No errors occurred

End of status report

==== Log checksum 58E82BF54A4FCCF82996E0212EB5CD7CA516CB290F0B0917E777E27ECCEDE152 ====

[CUETools log; Date: 10.05.2015 15:34:21; Version: 2.1.4]
[CTDB TOCID: q5hx0Jv2KgtkkMr_Oay1wOCJ5J4-] found.
Track | CTDB Status
1 | (4/4) Accurately ripped
2 | (4/4) Accurately ripped
3 | (4/4) Accurately ripped
4 | (4/4) Accurately ripped
5 | (4/4) Accurately ripped
6 | (4/4) Accurately ripped
7 | (4/4) Accurately ripped
[AccurateRip ID: 000bee85-004706af-62097d07] found.
Track [ CRC | V2 ] Status
01 [4b8c7ef8|1a5deb28] (05+03/13) Accurately ripped
02 [8f6aa9b8|7354a92d] (05+03/13) Accurately ripped
03 [e7405c4f|3eda2359] (05+03/13) Accurately ripped
04 [56e6358f|385b7c74] (05+03/13) Accurately ripped
05 [c5b55c87|3f300050] (05+03/13) Accurately ripped
06 [ca4fc52c|1e387186] (05+03/13) Accurately ripped
07 [9ddea4eb|825ea30f] (04+03/11) Accurately ripped
Offsetted by 664:
01 [0dd10557] (05/13) Accurately ripped
02 [209c0a11] (05/13) Accurately ripped
03 [666feb50] (05/13) Accurately ripped
04 [4c3dadc9] (05/13) Accurately ripped
05 [87b15291] (05/13) Accurately ripped
06 [5dbb1982] (05/13) Accurately ripped
07 [275e5560] (04/11) Accurately ripped

Track Peak [ CRC32 ] [W/O NULL] [ LOG ]
-- 93,5 [EEFC8F06] [C2C5770A]
01 87,6 [5E1E3444] [075D4F7C] CRC32
02 72,2 [A849817D] [31F8E5C3] CRC32
03 88,6 [3DA7E44A] [09FCA5E3] CRC32
04 93,5 [462A5B43] [1AF4E02B] CRC32
05 62,2 [ED47781D] [35F88433] CRC32
06 89,0 [5B180A23] [A1D1206C] CRC32
07 76,8 [AACECCA8] [07649A05] CRC32
Thanks to Fovit
DOWNLOAD LINKS:
Buy Premium To Support Me & Get Resumable Support & Max Speed


Links are Interchangeable - No Password - Single Extraction

Campo Di Marte - Campo Di Marte (1973) [Reissue 2006] Fast Download



 
 
 
Dear visitor, you went to the site as an unregistered user. We encourage you to register or enter the site under your name.
 
   
 
 (Votes #: 0)