2013Zone For Latest Downloads

 
     
 
Legal Downloads » TV Shows » 9/11: 10 Years Later (2011)
Menu
Home Applications
Games Movies
Music TV Shows
Torrents Graphics

Sitemap

RSS
 
Advanced Search
Last News
Site Info
Top Contributors:
  1    supper88 32766
  2    admin 32671
  3    Whisky 10080
  4    Shark_ 8911
  5    creativelivenew 8706
  6    whathesupa 2799
  7    candymypost 840
  8    hvnteam 629
  9    vuong87 3


Articles:
  This Hour: 0
  Today: 0
  This Month: 58
  All Time: 515616


Torrents:
  Today: 0
  Yesterday: 0
  All Time: 156702


Membership:
  Registered Today :0
  This Hour:0
  This Month:0
  Total:14
  Banned:1

{online}
{inform_torrent}
Friend:
We Recomend
Trend
Trend
Ad1

Search In Site

TV Shows : 9/11: 10 Years Later (2011)
 

http://i60.fastpic.ru/big/2015/0512/93/dec4ffebd02dfe9a6cced74c1fcd0c93.jpg
9/11: 10 Years Later (2011)
HDTV | 1280x720 | .MKV/AVC @ 2041 Kbps | 1h 56mn | Audio: English AC3 384 kbps, 6 channels | Subs: None | 2.01 GiB
Genre: Documentary

"This unprecedented and exclusive insider's account by filmmaker James Hanlon and Gedeon and Jules Naudet of the World TradeCenter attack, which contains the only known footage of the first plane striking the World Trade Center and the only footage from inside Ground Zero during the attacks, will also include footage from events marking the 10th anniversary, as well as new interviews with many of the firefighters who were featured in the original program. They will discuss how their lives, families and the world have changed in the 10 years since the tragedy - some for better, some for worse. Viewers will also hear from New York City Fire Department health officials as they discuss some of the health issues that have plagued firefighters working at Ground Zero."

More info

General
Unique ID
: 256716079383740520552176530901664353499 (0xC121B7EC477629C271DD6C7ED6354CDB)
Complete name : 9.11.Ten.Years.Later.mkv
Format
: Matroska
Format version : Version 2
File size
: 2.01 GiB
Duration
: 1h 56mn
Overall bit rate : 2 475 Kbps

Video
ID : 1
Format
: AVC
Format/Info
: Advanced Video Codec
Format profile : [email protected]
Format settings, CABAC : Yes
Format settings, ReFrames : 4 frames
Codec ID
: V_MPEG4/ISO/AVC
Duration
: 1h 56mn
Bit rate
: 2 041 Kbps
Width
: 1 280 pixels
Height
: 720 pixels
Display aspect ratio : 16:9
Frame rate mode : Variable
Frame rate
: 29.970 fps
Color space
: YUV
Chroma subsampling

: 4:2:0
Bit depth
: 8 bits
Scan type
: Progressive
Bits/(Pixel*Frame)

: 0.074
Stream size
: 1.66 GiB (82%)
Writing library : x264 core 130 r2273 b3065e6
Encoding settings: cabac=1 / ref=1 / deblock=1:0:0 / analyse=0x1:0x111 / me=hex / subme=2 / psy=1 / psy_rd=1.00:0.00 / mixed_ref=0 / me_range=16 / chroma_me=1 / trellis=0 / 8x8dct=0 / cqm=0 / deadzone=21,11 / fast_pskip=1 / chroma_qp_offset=0 / threads=12 / lookahead_threads=4 / sliced_threads=0 / nr=0 / decimate=1 / interlaced=0 / bluray_compat=0 / constrained_intra=0 / bframes=3 / b_pyramid=2 / b_adapt=1 / b_bias=0 / direct=1 / weightb=1 / open_gop=0 / weightp=1 / keyint=300 / keyint_min=30 / scenecut=40 / intra_refresh=0 / rc_lookahead=10 / rc=crf / mbtree=1 / crf=22.0 / qcomp=0.60 / qpmin=0 / qpmax=69 / qpstep=4 / vbv_maxrate=20000 / vbv_bufsize=25000 / crf_max=0.0 / nal_hrd=none / ip_ratio=1.40 / aq=1:1.00
Language
: English
Default
: Yes
Forced
: No
Color primaries : BT.709-5, BT.1361, IEC 61966-2-4, SMPTE RP177
Transfer characteristics : BT.709-5, BT.1361
Matrix coefficients

: BT.709-5, BT.1361, IEC 61966-2-4 709, SMPTE RP177

Audio
ID : 2
Format
: AC-3
Format/Info
: Audio Coding 3
Mode extension : CM (complete main)
Format settings, Endianness : Big
Codec ID
: A_AC3
Duration
: 1h 56mn
Bit rate mode : Constant
Bit rate
: 384 Kbps
Channel(s)
: 6 channels
Channel positions: Front: L C R, Side: L R, LFE
Sampling rate : 48.0 KHz
Bit depth
: 16 bits
Compression mode : Lossy
Stream size
: 320 MiB (16%)
Language
: English
Default
: Yes
Forced
: No

Screenshots:

http://i57.fastpic.ru/big/2015/0512/cf/47441b36af9584aba60603531bfef9cf.jpg

http://i60.fastpic.ru/big/2015/0512/99/2162b114277f8ba10d9813cced5ee799.jpg

http://i48.fastpic.ru/big/2015/0512/37/4127b934eecd2e2157af47b4035f1237.jpg

http://i58.fastpic.ru/big/2015/0512/f6/6a2ae011db8f74bfda57f4da2763e2f6.jpg


DOWNLOAD LINKS:
Buy Premium To Support Me & Get Resumable Support & Max Speed


Links are Interchangeable - No Password - Single Extraction

9/11: 10 Years Later (2011) Fast Download


Ad2

 
 
 
Dear visitor, you went to the site as an unregistered user. We encourage you to register or enter the site under your name.
 
   
 
 (Votes #: 0)