2013Zone For Latest Downloads

 
     
 
Legal Downloads » Music » The Tea Party - Seven Circles (2005)
Menu
Home Applications
Games Movies
Music TV Shows
Torrents Graphics

Sitemap

RSS
 
Advanced Search
Last News
Site Info
Top Contributors:
  1    supper88 32766
  2    admin 32671
  3    Whisky 10080
  4    Shark_ 8911
  5    creativelivenew 8706
  6    whathesupa 2799
  7    candymypost 840
  8    hvnteam 629
  9    vuong87 3


Articles:
  This Hour: 0
  Today: 0
  This Month: 58
  All Time: 515616


Torrents:
  Today: 0
  Yesterday: 0
  All Time: 156702


Membership:
  Registered Today :0
  This Hour:0
  This Month:0
  Total:14
  Banned:1

{online}
{inform_torrent}
Friend:
We Recomend
Trend
Trend
Ad1

Search In Site

Music : The Tea Party - Seven Circles (2005)
 
http://i59.fastpic.ru/big/2015/0512/b3/425b31e914b7d4d38835fea9f2ab41b3.jpg

The Tea Party - Seven Circles (2005)
EAC Rip | FLAC (tracks & cue & log) | 339 MB | MP3 CBR 320 kbps | 109 MB | Scans | 0:45:09
Genre: Progressive Rock | Country: USA | Label: Inside Out Music| SPV48542 CD-E

"Seven Circles (2004) is The Tea Party's seventh album, and the last prior to the band breaking up in 2005. The album continues the style of the band's two previous offerings (The Interzone Mantras in 2001 and Triptych in 1999) by combining world music influences with rock instrumentation and electronic studio techniques. The album is also one of the band's most positive sounding records, forsaking the dystopian imagery and moody lyrics of past albums, and including several ballads that border on love-song territory. This change in focus has led to both praise and criticism from fans."

http://i48.fastpic.ru/big/2015/0512/71/958e3b2b287819a304d1409d00b7b071.jpg

"Seven albums into a decade-plus career, the Tea Party seem, if not resigned with their criminally low popularity profile outside of their native Canada (what truly ambitious artist could ever feel resigned?), at least appreciative of the fact that perhaps it's best to be bona fide stars at home and cult favorites worldwide on one's own terms, than global icons on someone else's. After all, the latter scenario has grown increasingly familiar during the new millennium's first decade, as music sales and consumer interest continually erode, forcing record labels to package their signings into ever smaller and blander product "boxes" better fit for mass consumption. And of course, anyone who's followed the Tea Party's musical trajectory since the early '90s knows all too well that the ever-restless and eclectic trio has been in constant reinvention mode almost from day one, making it impossible to package them into any restricting container. Indeed, they are evolving still, but, interestingly, while many of the group's prior creative detours were prone to dominate entire albums at a time, 2004's Seven Circles is distinctive for how it collects the experiments of yesteryear and then streamlines, blends, and subsumes them into some of the most fluid and immediate songwriting of the Tea Party's discography. One need not even look too closely to see that the individual stylistic hallmarks are all here somewhere -- including the beguiling Arabian flavors of "Luxuria" and the title cut, the breathtakingly orchestrated grandeur of "Oceans" and "The Watcher," the thunderous hard rock of "Empty Glass," and the Audioslave-ish "Overload," and even the industrial/electronic accents used on ("Stargazer" and "One Step Closer Away" -- only this time, it's possible to truly forget oneself within each song's diverse yet fluid undulations, rather than get caught up with playing a game of "spot the influence". Ultimately, this impressively seamless and controlled amalgamation may imbue Seven Circles with broader appeal than perhaps any other Tea Party album -- too bad that may still not be enough to spread their gospel beyond Canadian borders.
Review by Eduardo Rivadavia
"




Tracklist:

01. Writing's On The Wall [0:02:40.61]
02. Stargazer [0:04:11.04]
03. One Step Closer Away [0:03:49.12]
04. Oceans [0:04:35.34]
05. Luxuria [0:04:25.68]
06. Overload [0:03:53.31]
07. Coming Back Again [0:04:44.39]
08. The Watcher [0:04:16.59]
09. Empty Glass [0:03:16.28]
10. Watching You Would Stay [0:04:11.36]
11. Seven Circles [0:05:04.07]

Exact Audio Copy V1.0 beta 3 from 29. August 2011

Отчёт EAC об извлечении, выполненном 4. мая 2015, 1:55

The Tea Party / Seven Circles

Дисковод: ASUS DRW-1814BLT Adapter: 4 ID: 0

Режим чтения : Достоверность
?спользование точного потока : Да
Отключение кэ?а аудио : Да
?спользование указателей C2 : Нет

Коррекция смещения при чтении : 6
Способность читать области Lead-in и Lead-out : Нет
Заполнение пропущенных сэмплов ти?иной : Да
Удаление блоков с ти?иной в начале и конце : Нет
При вычислениях CRC использовались нулевые сэмплы : Да
?нтерфейс : Встроенный Win32-интерфейс для Win NT/2000
Обработка зазоров
: Добавлено к предыдущему треку

Выходной формат : Пользовательский кодировщик
Выбранный битрейт : 128 kBit/s
Качество : Высокий
Добавление ID3-тега : Нет
Утилита сжатия : C:\Program Files\Exact Audio Copy\Flac\flac.exe
Дополнительные параметры : -V -8 -T "Genre=%genre%" -T "Artist=%artist%" -T "Title=%title%" -T "Album=%albumtitle%" -T "Date=%year%" -T "Tracknumber=%tracknr%" -T "Comment=EAC1.0b2 FLAC -8" %source%

TOC извлечённого CD Трек | Старт | Длительность | Начальный сектор | Конечный сектор

1 | 0:00.00 | 2:40.61 | 0 | 12060
2 | 2:40.61 | 4:11.04 | 12061 | 30889
3 | 6:51.65 | 3:49.12 | 30890 | 48076
4 | 10:41.02 | 4:35.34 | 48077 | 68735
5 | 15:16.36 | 4:25.68 | 68736 | 88678
6 | 19:42.29 | 3:53.31 | 88679 | 106184
7 | 23:35.60 | 4:44.39 | 106185 | 127523
8 | 28:20.24 | 4:16.59 | 127524 | 146782
9 | 32:37.08 | 3:16.28 | 146783 | 161510
10 | 35:53.36 | 4:11.36 | 161511 | 180371
11 | 40:04.72 | 5:04.07 | 180372 | 203178
12 | 47:41.04 | 6:58.57 | 214579 | 245985

Трек 1 ?мя файла R:\Раздача 45\The Tea Party - 2005 - Seven Circles\01 Writing's On The Wall.wav Длина предзазора 0:00:02.00 Пиковый уровень 96.6 %
Скорость извлечения 4.6 X
Качество трека 100.0 %
CRC теста 6B3A0DDE
CRC копии 6B3A0DDE
Точность не определена (достоверность 9) [0461561A], AccurateRip вернул [A54B11EC] (AR v2)
Копирование... OK

Трек 2 ?мя файла R:\Раздача 45\The Tea Party - 2005 - Seven Circles\02 Stargazer.wav Пиковый уровень 96.6 %
Скорость извлечения 5.5 X
Качество трека 100.0 %
CRC теста E5F8F567
CRC копии E5F8F567
Точность не определена (достоверность 8) [10DF5195], AccurateRip вернул [42E94EE0] (AR v2)
Копирование... OK

Трек 3 ?мя файла R:\Раздача 45\The Tea Party - 2005 - Seven Circles\03 One Step Closer Away.wav Пиковый уровень 96.6 %
Скорость извлечения 5.9 X
Качество трека 100.0 %
CRC теста 149D673D
CRC копии 149D673D
Точность не определена (достоверность 8) [4AEBFAC1], AccurateRip вернул [7186F7D4] (AR v2)
Копирование... OK

Трек 4 ?мя файла R:\Раздача 45\The Tea Party - 2005 - Seven Circles\04 Oceans.wav Длина предзазора 0:00:01.23 Пиковый уровень 96.6 %
Скорость извлечения 6.6 X
Качество трека 100.0 %
CRC теста 9BB48ADE
CRC копии 9BB48ADE
Точность не определена (достоверность 8) [7A28102C], AccurateRip вернул [CDEA89BF] (AR v2)
Копирование... OK

Трек 5 ?мя файла R:\Раздача 45\The Tea Party - 2005 - Seven Circles\05 Luxuria.wav Пиковый уровень 96.6 %
Скорость извлечения 5.3 X
Качество трека 99.9 %
CRC теста B836D7EA
CRC копии B836D7EA
Точность не определена (достоверность 8) [26DFDE80], AccurateRip вернул [4352C5E5] (AR v2)
Копирование... OK

Трек 6 ?мя файла R:\Раздача 45\The Tea Party - 2005 - Seven Circles\06 Overload.wav Пиковый уровень 96.6 %
Скорость извлечения 7.3 X
Качество трека 100.0 %
CRC теста 77D39535
CRC копии 77D39535
Точность не определена (достоверность 8) [E19D9680], AccurateRip вернул [8E9B55A9] (AR v2)
Копирование... OK

Трек 7 ?мя файла R:\Раздача 45\The Tea Party - 2005 - Seven Circles\07 Coming Back Again.wav Пиковый уровень 96.6 %
Скорость извлечения 6.0 X
Качество трека 99.9 %
CRC теста 593DE855
CRC копии 593DE855
Точность не определена (достоверность 8) [8B655FA8], AccurateRip вернул [2BD761C0] (AR v2)
Копирование... OK

Трек 8 ?мя файла R:\Раздача 45\The Tea Party - 2005 - Seven Circles\08 The Watcher.wav Длина предзазора 0:00:01.05 Пиковый уровень 96.6 %
Скорость извлечения 8.2 X
Качество трека 100.0 %
CRC теста 6FBB0C14
CRC копии 6FBB0C14
Точность не определена (достоверность 8) [FF1CF7CB], AccurateRip вернул [CC6C6885] (AR v2)
Копирование... OK

Трек 9 ?мя файла R:\Раздача 45\The Tea Party - 2005 - Seven Circles\09 Empty Glass.wav Пиковый уровень 96.6 %
Скорость извлечения 8.1 X
Качество трека 100.0 %
CRC теста 4C504331
CRC копии 4C504331
Точность не определена (достоверность 8) [9A552B66], AccurateRip вернул [28B0B2F6] (AR v2)
Копирование... OK

Трек 10 ?мя файла R:\Раздача 45\The Tea Party - 2005 - Seven Circles\10 Watching You Would Stay.wav Длина предзазора 0:00:01.10 Пиковый уровень 96.6 %
Скорость извлечения 8.9 X
Качество трека 100.0 %
CRC теста 8F73E86C
CRC копии 8F73E86C
Точность не определена (достоверность 8) [83995F8B], AccurateRip вернул [F88F22BB] (AR v2)
Копирование... OK

Трек 11 ?мя файла R:\Раздача 45\The Tea Party - 2005 - Seven Circles\11 Seven Circles.wav Пиковый уровень 96.6 %
Скорость извлечения 7.1 X
Качество трека 99.9 %
CRC теста 5AE65EC5
CRC копии 5AE65EC5
Точность не определена (достоверность 8) [33AB37A2], AccurateRip вернул [F05460AD] (AR v2)
Копирование... OK

Ни один трек не про?ёл проверки на точность
В ва?ей базе может быть иной вариант ?тамповки диска

О?ибок не произо?ло

Конец отчёта

==== Контрольная сумма отчёта 1D5E873E8A444CBBF8CA34F27FCB0391BE777E5004D868A8CCA4AEF4108DE37C ====

Personnel

- Jeff Martin / vocals, guitars
- Stuart Chatwood / bass
- Jeff Burrows / drums

All thanks to clustert

http://i60.fastpic.ru/big/2015/0512/6c/14723d1837cbb6393ef4e381039a4a6c.jpg

http://i59.fastpic.ru/big/2015/0512/57/ab8aeed0d02462e924f9d91904fcb357.jpg


DOWNLOAD LINKS:
Buy Premium To Support Me & Get Resumable Support & Max Speed


Links are Interchangeable - No Password - Single Extraction

The Tea Party - Seven Circles (2005) Fast Download


Ad2

 
 
 
Dear visitor, you went to the site as an unregistered user. We encourage you to register or enter the site under your name.
 
   
 
 (Votes #: 0)