2013Zone For Latest Downloads

 
     
 
Legal Downloads » Music » Faces - Long Player (1971) [1990, Warner-Pioneer WPCP-4037, Japan]
Menu
Home Applications
Games Movies
Music TV Shows
Torrents Graphics

Sitemap

RSS
 
Advanced Search
Last News
Site Info
Top Contributors:
  1    supper88 32766
  2    admin 32708
  3    Whisky 10080
  4    Shark_ 8911
  5    creativelivenew 8706
  6    whathesupa 2799
  7    candymypost 840
  8    hvnteam 629
  9    vuong87 3


Articles:
  This Hour: 0
  Today: 17
  This Month: 17
  All Time: 515518


Torrents:
  Today: 0
  Yesterday: 0
  All Time: 156676


Membership:
  Registered Today :0
  This Hour:0
  This Month:0
  Total:14
  Banned:1

{online}
{inform_torrent}
Friend:
Full Download Scripts
Torrent Download
Trend
Trend

Search In Site

Music : Faces - Long Player (1971) [1990, Warner-Pioneer WPCP-4037, Japan]
 
http://i58.fastpic.ru/big/2015/0512/a0/e1a853d8714d4f0ca4e1ceb4eb1d12a0.jpg

Faces - Long Player (1971)
EAC | Flac(Image) + Cue + Log & MP3 CBR 320Kbps
Warner-Pioneer, WPCP-4037 | ~ 280 or 125 Mb | Scans Included
Classic Rock

"On their second album Long Player, the Faces truly gel -- which isn't quite the same thing as having the band straighten up and fly right because in many ways this is album is even more ragged than their debut, with tracks that sound like they were recorded through a shoebox thrown up against a couple of haphazardly placed live cuts..."


Tracklist:

01. Bad 'N' Ruin - 5:27
02. Tell Everyone - 4:22
03. Sweet Lady Mary - 5:51
04. Richmond - 3:05
05. Maybe I'm Amazed (Live) - 5:34
06. Had Me A Real Good Time - 5:54
07. On The Beach - 4:18
08. I Feel So Good (Live) - 8:54
09. Jerusalem - 1:54

Exact Audio Copy V1.0 beta 4 from 7. December 2014

EAC extraction logfile from 25. April 2015, 13:19

Faces / Long Player (1990, WPCP-4037)

Used drive : ATAPI iHAS124 B Adapter: 1 ID: 0

Read mode : Secure
Utilize accurate stream : Yes
Defeat audio cache : Yes
Make use of C2 pointers : No

Read offset correction

: 6
Overread into Lead-In and Lead-Out : No
Fill up missing offset samples with silence : Yes
Delete leading and trailing silent blocks : No
Null samples used in CRC calculations : Yes
Used interface
: Installed external ASPI interface

Used output format : User Defined Encoder
Selected bitrate : 128 kBit/s
Quality : High
Add ID3 tag : Yes
Command line compressor : C:\Program Files (x86)\Exact Audio Copy\Flac\flac.exe
Additional command line options : -V -8 -T "Date=%year%" -T "Genre=%genre%" %source%

TOC of the extracted CD Track | Start | Length | Start sector | End sector
1 | 0:00.00 | 5:27.30 | 0 | 24554 2 | 5:27.30 | 4:21.55 | 24555 | 44184 3 | 9:49.10 | 5:51.05 | 44185 | 70514 4 | 15:40.15 | 3:04.50 | 70515 | 84364 5 | 18:44.65 | 5:34.10 | 84365 | 109424 6 | 24:19.00 | 5:53.60 | 109425 | 135959 7 | 30:12.60 | 4:18.23 | 135960 | 155332 8 | 34:31.08 | 8:53.50 | 155333 | 195357 9 | 43:24.58 | 1:54.02 | 195358 | 203909

Range status and errors

Selected range Filename G:\CD\Faces - Long Player.wav Peak level 100.0 %
Extraction speed 7.7 X
Range quality 100.0 %
Test CRC C750B572
Copy CRC C750B572
Copy OK

No errors occurred


AccurateRip summary

Track 1 accurately ripped (confidence 1) [D6F44813] (AR v2)
Track 2 accurately ripped (confidence 1) [D6330434] (AR v2)
Track 3 accurately ripped (confidence 1) C60CB3D (AR v2)
Track 4 accurately ripped (confidence 1) [8D4777E6] (AR v2)
Track 5 accurately ripped (confidence 1) C6532CE (AR v2)
Track 6 accurately ripped (confidence 1) [D960B9FE] (AR v2)
Track 7 accurately ripped (confidence 1) [41C60AB8] (AR v2)
Track 8 accurately ripped (confidence 1) [F8C1A5B1] (AR v2)
Track 9 accurately ripped (confidence 1) [9AF23246] (AR v2)

All tracks accurately ripped

End of status report

---- CUETools DB Plugin V2.1.4

[CTDB TOCID: D5JRcJIR3JZ7v6DMgTifs3MretY-] found
Submit result: D5JRcJIR3JZ7v6DMgTifs3MretY- has been confirmed
Track | CTDB Status
1 | (2/2) Accurately ripped
2 | (2/2) Accurately ripped
3 | (2/2) Accurately ripped
4 | (2/2) Accurately ripped
5 | (2/2) Accurately ripped
6 | (2/2) Accurately ripped
7 | (2/2) Accurately ripped
8 | (2/2) Accurately ripped
9 | (2/2) Accurately ripped

==== Log checksum D660848652E91A8B65BD25EB66353BB8A75DBE164CA7672898E41D4361E52A13 ====

foobar2000 1.2.9 / Dynamic Range Meter 1.1.1
log date: 2015-05-10 12:31:27

------
Analyzed: Faces / Long Player (1990, WPCP-4037)
------

DR Peak RMS Duration Track
------
DR12 0.00 dB -14.10 dB 5:27 01-Bad 'N' Ruin
DR13 -1.48 dB -16.81 dB 4:22 02-Tell Everyone
DR12 -1.36 dB -16.22 dB 5:51 03-Sweet Lady Mary
DR12 -3.43 dB -20.12 dB 3:05 04-Richmond
DR11 -0.69 dB -16.55 dB 5:34 05-Maybe I'm Amazed (Live)
DR12 -0.07 dB -14.33 dB 5:54 06-Had Me A Real Good Time
DR12 -3.51 dB -18.55 dB 4:18 07-On The Beach
DR11 -1.39 dB -17.01 dB 8:54 08-I Feel So Good (Live)
DR15 -5.88 dB -25.26 dB 1:54 09-Jerusalem
------

Number of tracks: 9
Official DR value: DR12

Samplerate: 44100 Hz
Channels: 2
Bits per sample: 16
Bitrate: 782 kbps
Codec: FLAC

[CUETools log; Date: 10.05.2015 12:31:51; Version: 2.1.4]
[CTDB TOCID: D5JRcJIR3JZ7v6DMgTifs3MretY-] found.
Track | CTDB Status
1 | (3/3) Accurately ripped
2 | (3/3) Accurately ripped
3 | (3/3) Accurately ripped
4 | (3/3) Accurately ripped
5 | (3/3) Accurately ripped
6 | (3/3) Accurately ripped
7 | (3/3) Accurately ripped
8 | (3/3) Accurately ripped
9 | (3/3) Accurately ripped
[AccurateRip ID: 000f9e76-0072f4ef-6c0a9e09] found.
Track [ CRC | V2 ] Status
01 [cc378939|d6f44813] (1+1/3) Accurately ripped
02 [e5293d34|d6330434] (1+1/3) Accurately ripped
03 [4f2d44d2|bc60cb3d] (1+1/3) Accurately ripped
04 [a1ab2e06|8d4777e6] (1+1/3) Accurately ripped
05 [cf85b9b0|bc6532ce] (1+1/3) Accurately ripped
06 [3e5e3bf0|d960b9fe] (1+1/3) Accurately ripped
07 [7778d477|41c60ab8] (1+1/3) Accurately ripped
08 [73346da5|f8c1a5b1] (1+1/3) Accurately ripped
09 [73c92189|9af23246] (1+1/3) Accurately ripped
Offsetted by 6:
01 [882f063f] (1/3) Accurately ripped
02 [4b3f775a] (1/3) Accurately ripped
03 [98710e00] (1/3) Accurately ripped
04 [664c7884] (1/3) Accurately ripped
05 [1ff3e70c] (1/3) Accurately ripped
06 [4e8e6140] (1/3) Accurately ripped
07 [0238fc35] (1/3) Accurately ripped
08 [f09d74d9] (1/3) Accurately ripped
09 [57ef3c83] (1/3) Accurately ripped

Track Peak [ CRC32 ] [W/O NULL] [ LOG ]
-- 100,0 [C750B572] [4AF70B2B] CRC32
01 100,0 EB0BD93 [A8FAE559]
02 84,3 [7312A7EC] [2A494ED6]
03 85,4 [AA829F9F] [6CADE163]
04 67,3 [98218CD6] [FF11F22A]
05 92,3 [818B4DE9] [ADFB5BC0]
06 99,1 [22A3B8E1] [7B8B05C8]
07 66,7 [25BD442C] [8DB73EA2]
08 85,1 [1A304389] [C8D97EA8]
09 50,8 [95726923] [E9CC97DD]

http://i57.fastpic.ru/big/2015/0512/d7/67d5b439f4a35e16aac62282d43e9bd7.jpg

DOWNLOAD LINKS:
Buy Premium To Support Me & Get Resumable Support & Max Speed


Links are Interchangeable - No Password - Single Extraction

Faces - Long Player (1971) [1990, Warner-Pioneer WPCP-4037, Japan] Fast Download



 
 
 
Dear visitor, you went to the site as an unregistered user. We encourage you to register or enter the site under your name.
 
   
 
 (Votes #: 0)