2013Zone For Latest Downloads

 
     
 
Legal Downloads » Music » Argaman - My Little Forest (2009)
Menu
Home Applications
Games Movies
Music TV Shows
Torrents Graphics

Sitemap

RSS
 
Advanced Search
Last News
Site Info
Top Contributors:
  1    supper88 32766
  2    admin 32671
  3    Whisky 10080
  4    Shark_ 8911
  5    creativelivenew 8706
  6    whathesupa 2799
  7    candymypost 840
  8    hvnteam 629
  9    vuong87 3


Articles:
  This Hour: 0
  Today: 0
  This Month: 78
  All Time: 515636


Torrents:
  Today: 0
  Yesterday: 0
  All Time: 156702


Membership:
  Registered Today :0
  This Hour:0
  This Month:0
  Total:14
  Banned:1

{online}
{inform_torrent}
Friend:
We Recomend
Trend
Trend
Ad1

Search In Site

Music : Argaman - My Little Forest (2009)
 
http://i47.fastpic.ru/big/2015/0512/69/605ab281f9e312c59f9b4f2c28544a69.jpg

Argaman - My Little Forest (2009)
EAC Rip | FLAC (image+.cue+log) - 455 MB | MP3 CBR 320 kbps (LAME 3.93) - 173 MB | Covers - 91 MB
Genre: Dub, Chillout, Ambient, Experimental | RAR 3% Rec. | Label: FairyTales Records (FTRCD01)

"Rarely in the electronic music world nowadays does an album come along that is so ground breaking and earth shattering, it renews the listener with a second wind of inspiration, enthusiasm, and vitality. And when it does, the amount of mediocrity one needs to sift through to discover it requires a metal detector and a sturdy mental shovel. However, this album, 'My Little Forest', by Israeli producer and virtuoso Argaman, is the exception to this and so many other perceived rules. Having been playing and composing orchestral and classical music since the age of 6, by the time he reached adulthood, his highly sought after scores were being featured in box office films..."

Tracklist:
01. LSDing Camping
02. You Will See
03. InHarmonic Symphony
04. WeirDub
05. Don't Leave Me Alone
06. The Old Times
07. Its Not For Money
08. The New Vibe (Twisted Parody)
09. Concertina
10. The Silence

Total time: 01:13:35

Exact Audio Copy V0.99 prebeta 5 from 4. May 2009

EAC extraction logfile from 19. September 2010, 17:33

Argaman / My Little Forest

Used drive : Optiarc DVD RW AD-7200S Adapter: 1 ID: 0

Read mode : Secure
Utilize accurate stream : Yes
Defeat audio cache : Yes
Make use of C2 pointers : No

Read offset correction

: 48
Overread into Lead-In and Lead-Out : No
Fill up missing offset samples with silence : Yes
Delete leading and trailing silent blocks : No
Null samples used in CRC calculations : Yes
Used interface
: Native Win32 interface for Win NT & 2000

Used output format : User Defined Encoder
Selected bitrate : 768 kBit/s
Quality : High
Add ID3 tag : No
Command line compressor : C:\Program Files\Exact Audio Copy\FLAC\FLAC.EXE
Additional command line options : -8 -V %s

TOC of the extracted CD Track | Start | Length | Start sector | End sector
1 | 0:00.00 | 9:55.37 | 0 | 44661 2 | 9:55.37 | 7:26.73 | 44662 | 78184 3 | 17:22.35 | 6:13.60 | 78185 | 106219 4 | 23:36.20 | 6:57.19 | 106220 | 137513 5 | 30:33.39 | 1:59.08 | 137514 | 146446 6 | 32:32.47 | 7:11.31 | 146447 | 178802 7 | 39:44.03 | 7:24.48 | 178803 | 212150 8 | 47:08.51 | 8:55.01 | 212151 | 252276 9 | 56:03.52 | 9:01.73 | 252277 | 292924
10 | 65:05.50 | 8:29.44 | 292925 | 331143

Range status and errors

Selected range Filename D:\Argaman - My Little Forest.wav Peak level 100.0 %
Range quality 100.0 %
Test CRC 9BA2955A
Copy CRC 9BA2955A
Copy OK

No errors occurred


AccurateRip summary

Track 1 accurately ripped (confidence 2) [2E2D64D1]
Track 2 accurately ripped (confidence 2) [5EC8078A]
Track 3 accurately ripped (confidence 2) [FCD323FD]
Track 4 accurately ripped (confidence 2) [2CAE9B0D]
Track 5 accurately ripped (confidence 2) [436729B5]
Track 6 accurately ripped (confidence 2) [DE1D8783]
Track 7 accurately ripped (confidence 2) [6986FD84]
Track 8 accurately ripped (confidence 2) [E8068FF9]
Track 9 accurately ripped (confidence 2) [CD4E6379]
Track 10 accurately ripped (confidence 2) [00201C0E]

All tracks accurately ripped

End of status report

[CUETools log; Date: 10.05.2015 16:57:53; Version: 2.1.4]
[CTDB TOCID: S85ziaKVv.z94LTCYz73lStk.6w-] found.
Track | CTDB Status
1 | (4/4) Accurately ripped
2 | (4/4) Accurately ripped
3 | (4/4) Accurately ripped
4 | (4/4) Accurately ripped
5 | (4/4) Accurately ripped
6 | (4/4) Accurately ripped
7 | (4/4) Accurately ripped
8 | (4/4) Accurately ripped
9 | (4/4) Accurately ripped
10 | (4/4) Accurately ripped
[AccurateRip ID: 001b2a68-00d73e38-96113f0a] found.
Track [ CRC | V2 ] Status
01 [2e2d64d1|06c08d61] (3+0/3) Accurately ripped
02 [5ec8078a|9d703e1f] (3+0/3) Accurately ripped
03 [fcd323fd|71ef025a] (3+0/3) Accurately ripped
04 [2cae9b0d|29d9d0d3] (3+0/3) Accurately ripped
05 [436729b5|5a6b8988] (3+0/3) Accurately ripped
06 [de1d8783|abefee47] (3+0/3) Accurately ripped
07 [6986fd84|53377ef9] (3+0/3) Accurately ripped
08 [e8068ff9|2f46eeb3] (3+0/3) Accurately ripped
09 [cd4e6379|b1217ce0] (3+0/3) Accurately ripped
10 [00201c0e|b4c809ca] (3+0/3) Accurately ripped

Track Peak [ CRC32 ] [W/O NULL] [ LOG ]
-- 100,0 [9BA2955A] [6540A579] CRC32
01 97,6 [5E4318D7] [5DAB4092]
02 98,4 C5F2F70 [3F82FFD7]
03 97,4 [102E425E] A548BB5
04 97,4 [6CA55708] [870B857E]
05 100,0 [ECAA2BAD] [329F676A]
06 97,3 [DFB35DD3] [571C8506]
07 97,2 D75076A [8C76747C]
08 97,5 1500D23 [2FE7DB8F]
09 97,5 [86A6E43B] [6F1D99C3]
10 100,0 [34D29524] [F187CA90]

Thanks to vostrik
DOWNLOAD LINKS:
Buy Premium To Support Me & Get Resumable Support & Max Speed


Links are Interchangeable - No Password - Single Extraction



Ad2

 
 
 
Dear visitor, you went to the site as an unregistered user. We encourage you to register or enter the site under your name.
 
   
 
 (Votes #: 0)