2013Zone For Latest Downloads

 
     
 
Legal Downloads » Music » Loggins & Messina - Native Sons (1976)
Menu
Home Applications
Games Movies
Music TV Shows
Torrents Graphics

Sitemap

RSS
 
Advanced Search
Last News
Site Info
Top Contributors:
  1    supper88 32766
  2    admin 32693
  3    Whisky 10080
  4    Shark_ 8911
  5    creativelivenew 8706
  6    whathesupa 2799
  7    candymypost 840
  8    hvnteam 629
  9    vuong87 3


Articles:
  This Hour: 0
  Today: 0
  This Month: 10
  All Time: 515561


Torrents:
  Today: 0
  Yesterday: 0
  All Time: 156684


Membership:
  Registered Today :0
  This Hour:0
  This Month:0
  Total:14
  Banned:1

{online}
{inform_torrent}
Friend:
We Recomend
Trend
Trend
Ad1

Search In Site

Music : Loggins & Messina - Native Sons (1976)
 
http://i72.fastpic.ru/big/2015/0514/75/57ae93ecc629eaf169a8ca53edf05775.jpg

Loggins & Messina - Native Sons (1976)
EAC Rip | FLAC with CUE and log @ 253mb | scans
MP3 @ 87mb | CBR 320kbps | RAR
Genre: folk rock, pop, rock'n'roll, country, country rock, classic rock

Native Sons is an album released by Kenny Loggins & Jim Messina in 1976. It was also their last album together before they split, leading both to solo careers, with one gaining much more mileage than the other. While this album sold well, it didn't have a giant hit equal to "Your Mama Don't Dance" but it did release "Peacemaker" as a single. The album is as solid as Sittin' In, Full Sail, and their self-titled second album. As it turned out, it seems the group made this knowing it would be their last. (I also updated the files for the MFSL pressing of the Full Sail album, available in both FLAC and MP3. You can access by )
http://i72.fastpic.ru/big/2015/0514/52/fb3af17df5d9a4c0c108699e016f0f52.jpg

1. Sweet Marie
2. My Pretty Princess
3. My Lady, My Love
4. When I Was A Child
5. Wasting Our Time
6. Peacemaker
7. It's Alight
8. Boogie Man
9. Fox Fire
10. Native Son

http://i72.fastpic.ru/big/2015/0514/d0/a15c19dbfc1c11e00de673293b3ce8d0.jpg



EAC extraction logfile from 8. January 2006, 9:22 for CD
Loggins & Messina / Native Sons

Used drive : LITE-ON DVDRW SOHW-1633S Adapter: 0 ID: 0
Read mode : Secure with NO C2, accurate stream, disable cache
Read offset correction : 12
Overread into Lead-In and Lead-Out : No

Used output format : Internal WAV Routines 44.100 Hz; 16 Bit; Stereo

Other options :
Fill up missing offset samples with silence : Yes
Delete leading and trailing silent blocks : No
Installed external ASPI interface

Track 1
Filename D:\FLAC\Loggins & Messina - Native Sons (1976) [FLAC]\01 - Sweet Marie.wav Pre-gap length 0:00:02.00 Peak level 97.7 %
Track quality 100.0 %
Test CRC 55727CE4
Copy CRC 55727CE4
Copy OK

Track 2
Filename D:\FLAC\Loggins & Messina - Native Sons (1976) [FLAC]\02 - Pretty Princess.wav Pre-gap length 0:00:01.50 Peak level 100.0 %
Track quality 100.0 %
Test CRC ABD07518
Copy CRC ABD07518
Copy OK

Track 3
Filename D:\FLAC\Loggins & Messina - Native Sons (1976) [FLAC]\03 - My Lady, My Love.wav Pre-gap length 0:00:01.49 Peak level 71.2 %
Track quality 100.0 %
Test CRC 87959477
Copy CRC 87959477
Copy OK

Track 4
Filename D:\FLAC\Loggins & Messina - Native Sons (1976) [FLAC]\04 - When I Was A Child.wav Pre-gap length 0:00:02.13 Peak level 100.0 %
Track quality 100.0 %
Test CRC 83BCE49F
Copy CRC 83BCE49F
Copy OK

Track 5
Filename D:\FLAC\Loggins & Messina - Native Sons (1976) [FLAC]\05 - Wasting Our Time.wav Pre-gap length 0:00:01.49 Peak level 100.0 %
Track quality 100.0 %
Test CRC EC20FAEE
Copy CRC EC20FAEE
Copy OK

Track 6
Filename D:\FLAC\Loggins & Messina - Native Sons (1976) [FLAC]\06 - Peacemaker.wav Pre-gap length 0:00:01.82 Peak level 97.7 %
Track quality 100.0 %
Test CRC D0A2EE13
Copy CRC D0A2EE13
Copy OK

Track 7
Filename D:\FLAC\Loggins & Messina - Native Sons (1976) [FLAC]\07 - It's Alright.wav Pre-gap length 0:00:01.53 Peak level 100.0 %
Track quality 100.0 %
Test CRC DCC7126B
Copy CRC DCC7126B
Copy OK

Track 8
Filename D:\FLAC\Loggins & Messina - Native Sons (1976) [FLAC]\08 - Boogie Man.wav Pre-gap length 0:00:00.02 Peak level 100.0 %
Track quality 99.9 %
Test CRC 4E22013F
Copy CRC 4E22013F
Copy OK

Track 9
Filename D:\FLAC\Loggins & Messina - Native Sons (1976) [FLAC]\09 - Fox Fire.wav Pre-gap length 0:00:01.36 Peak level 100.0 %
Track quality 100.0 %
Test CRC 8CECDB96
Copy CRC 8CECDB96
Copy OK

Track 10
Filename D:\FLAC\Loggins & Messina - Native Sons (1976) [FLAC]\10 - Native Son.wav Pre-gap length 0:00:01.54 Peak level 97.1 %
Track quality 100.0 %
Test CRC A153A09B
Copy CRC A153A09B
Copy OK

No errors occured

End of status report
DOWNLOAD LINKS:
Buy Premium To Support Me & Get Resumable Support & Max Speed


Links are Interchangeable - No Password - Single Extraction

Loggins & Messina - Native Sons (1976) Fast Download


Ad2

 
 
 
Dear visitor, you went to the site as an unregistered user. We encourage you to register or enter the site under your name.
 
   
 
 (Votes #: 0)