2013Zone For Latest Downloads

 
     
 
Legal Downloads » Music » Katy Perry: The Prismatic World Tour (2015)
Menu
Home Applications
Games Movies
Music TV Shows
Torrents Graphics

Sitemap

RSS
 
Advanced Search
Last News
Site Info
Top Contributors:
  1    supper88 32766
  2    admin 32671
  3    Whisky 10080
  4    Shark_ 8911
  5    creativelivenew 8706
  6    whathesupa 2799
  7    candymypost 840
  8    hvnteam 629
  9    vuong87 3


Articles:
  This Hour: 0
  Today: 0
  This Month: 78
  All Time: 515636


Torrents:
  Today: 0
  Yesterday: 0
  All Time: 156702


Membership:
  Registered Today :0
  This Hour:0
  This Month:0
  Total:14
  Banned:1

{online}
{inform_torrent}
Friend:
We Recomend
Trend
Trend
Ad1

Search In Site

Music : Katy Perry: The Prismatic World Tour (2015)
 
http://i70.fastpic.ru/big/2015/0514/18/fff4b9f55c3d00e66a1be5b4dfb17818.jpg

Katy Perry: The Prismatic World Tour (2015)
Pop | HDTV 1080p | Audio: English | Subtitles: English | Run time: 115 mins | 6.68 GB
AVC, MKV 1920x1080 (16:9) 29.97fps, 7704kbps | AC3, 48000Hz, 6ch, 384kbps

"KATY PERRY: THE PRISMATIC WORLD TOUR is a sensory explosion of eye-popping theatrics and infectious pop tracks that secured Perry's place as one of the most captivating performers working today. Directed for the stage by Baz Halpin, the tour is a collaboration with Katy that offers fans a visually stunning production that captures her fun-loving attitude and artistic appeal."

Tracklisting:

Prismatic
01. Roar
02. Part of Me
03. Wide Awake
04. This Moment / Love Me
Egyptian
05. Dark Horse
06. E.T.
07. Legendary Lovers
08. I Kissed a Girl
Cat-Oure
09. Hot N Cold
10. International Smile (With "Vogue" snippet by Madonna)
Acoustic
11. By the Grace of God
12. The One That Got Away / Thinking of You
13. Unconditionally
Throw Back Intermission (Megamix Dance Party)
14. Walking on Air
15. It Takes Two
16. This Is How We Do / Last Friday Night (T.G.I.F.)
Hyper Neon Intermission (Peacock Remix)
17. Teenage Dream
18. California Gurls
Encore:
19. Birthday
20. Firework

Screeshots

http://i71.fastpic.ru/big/2015/0514/ce/6669422fd4280b10d4e3a5650b7883ce.jpg



Video
ID
: 1
Format : AVC
Format/Info

: Advanced Video Codec
Format profile : [email protected]
Format settings, CABAC : Yes
Format settings, ReFrames : 4 frames
Codec ID : V_MPEG4/ISO/AVC
Duration : 1h 55mn
Bit rate : 7 704 Kbps
Width : 1 920 pixels
Height : 1 080 pixels
Display aspect ratio : 16:9
Frame rate

: 29.970 fps
Color space

: YUV
Chroma subsampling : 4:2:0
Bit depth: 8 bits
Scan type: Progressive
Bits/(Pixel*Frame) : 0.124
Stream size

: 6.23 GiB (93%)
Writing library : x264 core 146 r2538 121396c
Encoding settings : cabac=1 / ref=4 / deblock=1:0:0 / analyse=0x3:0x113 / me=umh / subme=8 / psy=1 / psy_rd=1.00:0.00 / mixed_ref=1 / me_range=16 / chroma_me=1 / trellis=1 / 8x8dct=1 / cqm=0 / deadzone=21,11 / fast_pskip=1 / chroma_qp_offset=-2 / threads=9 / lookahead_threads=1 / sliced_threads=0 / nr=0 / decimate=1 / interlaced=0 / bluray_compat=0 / constrained_intra=0 / bframes=3 / b_pyramid=2 / b_adapt=2 / b_bias=0 / direct=3 / weightb=1 / open_gop=0 / weightp=2 / keyint=250 / keyint_min=25 / scenecut=40 / intra_refresh=0 / rc_lookahead=50 / rc=crf / mbtree=1 / crf=21.0 / qcomp=0.60 / qpmin=0 / qpmax=69 / qpstep=4 / ip_ratio=1.40 / aq=1:1.00
Language : English

Audio
ID
: 3
Format : AC-3
Format/Info

: Audio Coding 3
Mode extension : CM (complete main)
Codec ID : A_AC3
Duration : 1h 55mn
Bit rate mode : Constant
Bit rate : 384 Kbps
Channel(s)

: 6 channels
Channel positions : Front: L C R, Side: L R, LFE
Sampling rate : 48.0 KHz
Bit depth: 16 bits
Compression mode : Lossy
Video delay

: 31ms
Stream size

: 318 MiB (5%)
Language : English

Text
ID
: 2
Format : UTF-8
Codec ID : S_TEXT/UTF8
Codec ID/Info : UTF-8 Plain Text
Language : English

Thanks to the original releaser
DOWNLOAD LINKS:
Buy Premium To Support Me & Get Resumable Support & Max Speed


Links are Interchangeable - No Password - Single Extraction



Ad2

 
 
 
Dear visitor, you went to the site as an unregistered user. We encourage you to register or enter the site under your name.
 
   
 
 (Votes #: 0)