2013Zone For Latest Downloads

 
     
 
Legal Downloads » Music » Carole King - Welcome Home (1978) [2007, Japanese Paper Sleeve]
Menu
Home Applications
Games Movies
Music TV Shows
Torrents Graphics

Sitemap

RSS
 
Advanced Search
Last News
Site Info
Top Contributors:
  1    supper88 32766
  2    admin 32693
  3    Whisky 10080
  4    Shark_ 8911
  5    creativelivenew 8706
  6    whathesupa 2799
  7    candymypost 840
  8    hvnteam 629
  9    vuong87 3


Articles:
  This Hour: 0
  Today: 0
  This Month: 30
  All Time: 515561


Torrents:
  Today: 0
  Yesterday: 0
  All Time: 156684


Membership:
  Registered Today :0
  This Hour:0
  This Month:0
  Total:14
  Banned:1

{online}
{inform_torrent}
Friend:
We Recomend
Trend
Trend
Ad1

Search In Site

Music : Carole King - Welcome Home (1978) [2007, Japanese Paper Sleeve]
 
http://i72.fastpic.ru/big/2015/0514/cc/1fb0e02e6d90cbdec07618fdf8b920cc.jpg

Carole King - Welcome Home (1978) [2007, Japanese Paper Sleeve]
Pop/Rock, Singer/Songwriter | EAC Rip | FLAC, Tracks+CUE + LOG + Covers (Back & Front)-600dpi (JPEG) | 40:26 Min | 303,29 Mb
Label: Victor Entertainment (Japan) | Released: 2007, October, 31

"
Welcome Home is an album by American singer-songwriter Carole King, released in 1978. After seven straight gold-selling, Top 20 albums, Welcome Home demonstrated thoroughly that Carole King was on the wrong track. Her third husband, Rick Evers, who wrote lyrics for some of her songs and is pictured with her on the record cover, died of a drug overdose after this album was recorded in January 1978, but before it was released in May, which seems emblematic of the problems here.
"

Release of the album: 1978, January, 1 [LP Capitol Records, Cat.# SW-11785, USA]
Release of this CD: 2007, October, 31 [CD Victor Entertainment (Japan), Cat.# VICP-63992 / EAN: 4988002536993]

http://i71.fastpic.ru/big/2015/0514/f3/dbfd77939764b6efc907a65cc723b0f3.jpg


Arranged By [Horns] - George Bohanon
Arranged By [Strings] - Carole King
Art Direction - Roy Kohara, Roy Renolds
Bass, Written-By - Rob Galloway (tracks: 3, 6)
Cello - Dennis Karmazin, Ronald Cooper
Congas, Percussion, Written-By - Miguel Rivera (tracks: 3, 6)
Cowbell - Rick Evers (tracks: 3)
Drums, Written-By - Michael Wooten (tracks: 3, 6)
Engineer - Linda Tyler, Norm Kinney, Steve Katz
Flute, Saxophone, Clarinet, Vocals, Written-By - Richard Hardy (tracks: 3, 6)
Guitar, Vocals, Written-By - Mark Hallman (tracks: A3, B1), Robert McEntee (tracks: 3, 6)
Harp - Georgia Kelly (tracks: 3, 10)
Photography - Roy Reynolds
Producer - Carole King, Norm Kinney
Tambura - Anne Golia (tracks: 3)
Trumpet, Flugelhorn [Fluegelhorn] - Nolan Andrew Smith Jr.
Viola - Denyse Buffum, Rollice Dale
Violin - Dorothy Wade, Frank Foster, Israel Baker, John Wittenberg, Kenneth Yerke, Marcia Van Dyke, William H. Henderson
Violin, Concertmaster - Charles Veal Jr.
Vocals [High] - Rob Galloway (tracks: 6)


http://i69.fastpic.ru/big/2015/0514/51/ae29d3627198fed3cd01fd5398c66b51.jpg


Tracklist:

01. Main Street Saturday Night (05:46)
(C. King)
02. Sunbird (04:06)
(C. King, R. Evers)
03. Venusian Diamond (04:32)
(C. King, *Navarro, R. Evers)
04. Changes (02:29)
(C. King)
05. Morning Sun (04:34)
(C. King)
06. Disco Tech (05:12)
(C. King, *Navarro) [Soloist, Saxophone - Ernie Watts]
07. Wings Of Love (03:27)
(C. King, R. Evers)
08. Ride The Music (03:13)
(C. King)
09. Everybody's Got The Spirit (03:47)
(C. King)
10. Welcome Home (03:20)
(C. King) [Choir - A. Brown, A. White, C. King, M. Hallman, R. Hardy, R. McEntee, S. Sprull]

*Navarro:
Robert McEntee
Mark Hallman
Rob Galloway (aka Poonah)
Michael Wooten
Miguel Rivera
Richard Hardy


Choir on "Welcome Home" consists of Mark Hallman, Robert McEntee, Richard Hardy, Carole King, and three ladies kidnapped from the studio across the hall - Stephanie Sprull, Alexandra Brown, and Ann White.

The trio on "Changes" was played by the first member of each section.

Recorded at Sound Labs, Inc., Hollywood, California, January, 1978

Exact Audio Copy V1.0 beta 3 from 29. August 2011

EAC extraction logfile from 11. May 2015, 1:50

Carole King / Welcome Home

Used drive : HL-DT-STDVDRAM GH24NS90 Adapter: 1 ID: 0

Read mode : Secure
Utilize accurate stream : Yes
Defeat audio cache : No
Make use of C2 pointers : Yes

Read offset correction

: 6
Overread into Lead-In and Lead-Out : No
Fill up missing offset samples with silence : Yes
Delete leading and trailing silent blocks : No
Null samples used in CRC calculations : Yes
Used interface
: Native Win32 interface for Win NT & 2000
Gap handling
: Appended to previous track

Used output format : User Defined Encoder
Selected bitrate : 1024 kBit/s
Quality : High
Add ID3 tag : No
Command line compressor : C:\Program Files (x86)\FLAC\metaflac.exe
Additional command line options : -8

TOC of the extracted CD Track | Start | Length | Start sector | End sector
1 | 0:00.00 | 5:46.14 | 0 | 25963 2 | 5:46.14 | 4:06.20 | 25964 | 44433 3 | 9:52.34 | 4:32.05 | 44434 | 64838 4 | 14:24.39 | 2:29.05 | 64839 | 76018 5 | 16:53.44 | 4:33.45 | 76019 | 96538 6 | 21:27.14 | 5:11.60 | 96539 | 119923 7 | 26:38.74 | 3:27.15 | 119924 | 135463 8 | 30:06.14 | 3:13.15 | 135464 | 149953 9 | 33:19.29 | 3:47.05 | 149954 | 166983
10 | 37:06.34 | 3:20.10 | 166984 | 181993

Track 1 Filename C:\Exact Audio Copy\Carole King\Welcome Home\01 Main Street Saturday Night.wav Pre-gap length 0:00:02.00 Peak level 88.1 %
Extraction speed 3.8 X
Track quality 100.0 %
Test CRC 29606F5F
Copy CRC 29606F5F
Cannot be verified as accurate (confidence 3) [37A03663], AccurateRip returned [AD5C6C7C] (AR v2)
Copy OK

Track 2 Filename C:\Exact Audio Copy\Carole King\Welcome Home\02 Sunbird.wav Pre-gap length 0:00:01.70 Peak level 88.1 %
Extraction speed 4.2 X
Track quality 100.0 %
Test CRC 6F7C74FD
Copy CRC 6F7C74FD
Cannot be verified as accurate (confidence 3) [CE4F7BFE], AccurateRip returned [6717D327] (AR v2)
Copy OK

Track 3 Filename C:\Exact Audio Copy\Carole King\Welcome Home\03 Venusian Diamond.wav Pre-gap length 0:00:01.11 Peak level 88.1 %
Extraction speed 4.6 X
Track quality 100.0 %
Test CRC 4B5902AE
Copy CRC 4B5902AE
Cannot be verified as accurate (confidence 3) [E89DA7EA], AccurateRip returned [F60172CA] (AR v2)
Copy OK

Track 4 Filename C:\Exact Audio Copy\Carole King\Welcome Home\04 Changes.wav Pre-gap length 0:00:01.15 Peak level 88.1 %
Extraction speed 4.7 X
Track quality 100.0 %
Test CRC B682F2A8
Copy CRC B682F2A8
Cannot be verified as accurate (confidence 3) [1FB96F53], AccurateRip returned [7C02AA5B] (AR v2)
Copy OK

Track 5 Filename C:\Exact Audio Copy\Carole King\Welcome Home\05 Morning Sun.wav Pre-gap length 0:00:01.20 Peak level 88.1 %
Extraction speed 5.2 X
Track quality 100.0 %
Test CRC 2A9594C4
Copy CRC 2A9594C4
Cannot be verified as accurate (confidence 3) [2BCEF79A], AccurateRip returned [7BD51E5E] (AR v2)
Copy OK

Track 6 Filename C:\Exact Audio Copy\Carole King\Welcome Home\06 Disco Tech.wav Pre-gap length 0:00:01.40 Peak level 88.1 %
Extraction speed 5.7 X
Track quality 100.0 %
Test CRC 6C2CD66D
Copy CRC 6C2CD66D
Cannot be verified as accurate (confidence 3) [6B559170], AccurateRip returned [2A378D06] (AR v2)
Copy OK

Track 7 Filename C:\Exact Audio Copy\Carole King\Welcome Home\07 Wings Of Love.wav Pre-gap length 0:00:01.70 Peak level 88.1 %
Extraction speed 6.0 X
Track quality 100.0 %
Test CRC FDF60DA6
Copy CRC FDF60DA6
Cannot be verified as accurate (confidence 3) [F834A5A9], AccurateRip returned [DAB7583F] (AR v2)
Copy OK

Track 8 Filename C:\Exact Audio Copy\Carole King\Welcome Home\08 Ride The Music.wav Pre-gap length 0:00:01.70 Peak level 88.1 %
Extraction speed 6.2 X
Track quality 100.0 %
Test CRC D1E7C3F4
Copy CRC D1E7C3F4
Cannot be verified as accurate (confidence 3) [09DD7019], AccurateRip returned [31D69017] (AR v2)
Copy OK

Track 9 Filename C:\Exact Audio Copy\Carole King\Welcome Home\09 Everybody's Got The Spirit.wav Pre-gap length 0:00:01.65 Peak level 88.1 %
Extraction speed 6.2 X
Track quality 100.0 %
Test CRC 90AC4865
Copy CRC 90AC4865
Cannot be verified as accurate (confidence 3) [AC4075C8], AccurateRip returned [D81AE9EB] (AR v2)
Copy OK

Track 10 Filename C:\Exact Audio Copy\Carole King\Welcome Home\10 Welcome Home.wav Pre-gap length 0:00:01.70 Peak level 88.1 %
Extraction speed 6.4 X
Track quality 99.8 %
Test CRC 7B257522
Copy CRC 7B257522
Cannot be verified as accurate (confidence 3) [8C95E373], AccurateRip returned [A722DEF6] (AR v2)
Copy OK

No tracks could be verified as accurate
You may have a different pressing from the one(s) in the database

No errors occurred

End of status report

==== Log checksum D6FF031AE0EC1AD83A1A98FB943FDD54E7E140D524BA7CBDB6664EF66327F5AE ====

foobar2000 1.3.7 / Dynamic Range Meter 1.1.1
log date: 2015-05-11 21:31:37

------
Analyzed: Carole King / Welcome Home
------

DR Peak RMS Duration Track
------
DR10 -1.10 dB -12.81 dB 5:46 01 Main Street Saturday Night-01 Main Street Saturday Night
DR10 -1.10 dB -14.43 dB 4:06 02 Sunbird-02 Sunbird
DR10 -1.10 dB -14.65 dB 4:32 03 Venusian Diamond-03 Venusian Diamond
DR11 -1.10 dB -14.45 dB 2:29 04 Changes-04 Changes
DR10 -1.10 dB -14.12 dB 4:34 05 Morning Sun-05 Morning Sun
DR12 -1.10 dB -15.65 dB 5:12 06 Disco Tech-06 Disco Tech
DR12 -1.10 dB -17.78 dB 3:27 07 Wings Of Love-07 Wings Of Love
DR11 -1.10 dB -14.11 dB 3:13 08 Ride The Music-08 Ride The Music
DR10 -1.10 dB -13.05 dB 3:47 09 Everybody's Got The Spirit-09 Everybody's Got The Spirit
DR9 -1.10 dB -13.60 dB 3:20 10 Welcome Home-10 Welcome Home
------

Number of tracks: 10
Official DR value: DR11

Samplerate: 44100 Hz
Channels: 2
Bits per sample: 16
Bitrate: 910 kbps
Codec: FLAC
DOWNLOAD LINKS:
Buy Premium To Support Me & Get Resumable Support & Max Speed


Links are Interchangeable - No Password - Single Extraction

Carole King - Welcome Home (1978) [2007, Japanese Paper Sleeve] Fast Download


Ad2

 
 
 
Dear visitor, you went to the site as an unregistered user. We encourage you to register or enter the site under your name.
 
   
 
 (Votes #: 0)