2013Zone For Latest Downloads

 
     
 
Legal Downloads » Music » Fleetwood Mac - Future Games (1971) [1990, Warner-Pioneer, WPCP-3403]
Menu
Home Applications
Games Movies
Music TV Shows
Torrents Graphics

Sitemap

RSS
 
Advanced Search
Last News
Site Info
Top Contributors:
  1    supper88 32766
  2    admin 32693
  3    Whisky 10080
  4    Shark_ 8911
  5    creativelivenew 8706
  6    whathesupa 2799
  7    candymypost 840
  8    hvnteam 629
  9    vuong87 3


Articles:
  This Hour: 0
  Today: 0
  This Month: 0
  All Time: 515561


Torrents:
  Today: 0
  Yesterday: 0
  All Time: 156684


Membership:
  Registered Today :0
  This Hour:0
  This Month:0
  Total:14
  Banned:1

{online}
{inform_torrent}
Friend:
We Recomend
Trend
Trend
Ad1

Search In Site

Music : Fleetwood Mac - Future Games (1971) [1990, Warner-Pioneer, WPCP-3403]
 
http://i58.fastpic.ru/big/2015/0512/de/0e72a2d0fc711ea1fad2d8cc7f3c07de.jpg

Mac - Future Games (1971)
EAC | Flac(Image) + Cue + Log & MP3 CBR 320Kbps
Warner-Pioneer, WPCP-3403 | Japan | ~ 261 or 103 Mb | Scans(600dpi, jpg) -> 59 Mb
Blues Rock / Acoustic / Psychedelic Rock / Prog Rock

"By the time of this album's release, Jeremy Spencer had been replaced by Bob Welch and Christine McVie had begun to assert herself more as a singer and songwriter. The result is a distinct move toward folk-rock and pop; Future Games sounds almost nothing like Peter Green's Fleetwood Mac. ..."


Tracklist:

01. Woman Of 1000 Years - 5:29
02. Morning Rain - 5:39
03. What A Shame - 2:20
04. Future Games - 8:18
05. Sands Of Time - 7:24
06. Sometimes - 5:27
07. Lay It All Down - 4:31
08. Show Me A Smile - 3:22

Exact Audio Copy V1.0 beta 4 from 7. December 2014

EAC extraction logfile from 14. April 2015, 20:04

Fleetwood Mac / Future Games (1990, WPCP-3403)

Used drive : ATAPI iHAS124 B Adapter: 1 ID: 0

Read mode : Secure
Utilize accurate stream : Yes
Defeat audio cache : Yes
Make use of C2 pointers : No

Read offset correction

: 6
Overread into Lead-In and Lead-Out : No
Fill up missing offset samples with silence : Yes
Delete leading and trailing silent blocks : No
Null samples used in CRC calculations : Yes
Used interface
: Installed external ASPI interface

Used output format : User Defined Encoder
Selected bitrate : 128 kBit/s
Quality : High
Add ID3 tag : Yes
Command line compressor : C:\Program Files (x86)\Exact Audio Copy\Flac\flac.exe
Additional command line options : -V -8 -T "Date=%year%" -T "Genre=%genre%" %source%

TOC of the extracted CD Track | Start | Length | Start sector | End sector
1 | 0:00.00 | 5:28.72 | 0 | 24671 2 | 5:28.72 | 5:38.68 | 24672 | 50089 3 | 11:07.65 | 2:20.00 | 50090 | 60589 4 | 13:27.65 | 8:18.10 | 60590 | 97949 5 | 21:46.00 | 7:24.00 | 97950 | 131249 6 | 29:10.00 | 5:26.55 | 131250 | 155754 7 | 34:36.55 | 4:30.50 | 155755 | 176054 8 | 39:07.30 | 3:22.07 | 176055 | 191211

Range status and errors

Selected range Filename G:\CD\Fleetwood Mac - Future Games.wav Peak level 100.0 %
Extraction speed 7.7 X
Range quality 100.0 %
Test CRC 8B629DCC
Copy CRC 8B629DCC
Copy OK

No errors occurred


AccurateRip summary

Track 1 not present in database
Track 2 not present in database
Track 3 not present in database
Track 4 not present in database
Track 5 not present in database
Track 6 not present in database
Track 7 not present in database
Track 8 not present in database

None of the tracks are present in the AccurateRip database

End of status report

---- CUETools DB Plugin V2.1.4

[CTDB TOCID: VH9XCU1CKXw2r.g_YYY6JOx2QKw-] found
Submit result: VH9XCU1CKXw2r.g_YYY6JOx2QKw- has been confirmed
Track | CTDB Status
1 | (1/1) Accurately ripped
2 | (1/1) Accurately ripped
3 | (1/1) Accurately ripped
4 | (1/1) Accurately ripped
5 | (1/1) Accurately ripped
6 | (1/1) Accurately ripped
7 | (1/1) Accurately ripped
8 | (1/1) Accurately ripped

==== Log checksum C3ACC39077E8AFA8E501911CF3D071D775F3AE6D3141AAEE91E2CE0CB4122A01 ====

foobar2000 1.2.9 / Dynamic Range Meter 1.1.1
log date: 2015-05-11 10:46:28

------
Analyzed: Fleetwood Mac / Future Games (1990, WPCP-3403)
------

DR Peak RMS Duration Track
------
DR11 -1.22 dB -15.21 dB 5:29 01-Woman Of 1000 Years
DR11 0.00 dB -13.59 dB 5:39 02-Morning Rain
DR11 -0.76 dB -14.70 dB 2:20 03-What A Shame
DR12 -0.26 dB -15.18 dB 8:18 04-Future Games
DR13 0.00 dB -15.68 dB 7:24 05-Sands Of Time
DR13 -1.79 dB -16.77 dB 5:27 06-Sometimes
DR12 -0.89 dB -14.27 dB 4:31 07-Lay It All Down
DR12 -2.49 dB -18.04 dB 3:22 08-Show Me A Smile
------

Number of tracks: 8
Official DR value: DR12

Samplerate: 44100 Hz
Channels: 2
Bits per sample: 16
Bitrate: 817 kbps
Codec: FLAC

[CUETools log; Date: 11.05.2015 10:46:44; Version: 2.1.4]
[CTDB TOCID: VH9XCU1CKXw2r.g_YYY6JOx2QKw-] found.
Track | CTDB Status
1 | (2/2) Accurately ripped
2 | (2/2) Accurately ripped
3 | (2/2) Accurately ripped
4 | (2/2) Accurately ripped
5 | (2/2) Accurately ripped
6 | (2/2) Accurately ripped
7 | (2/2) Accurately ripped
8 | (2/2) Accurately ripped
[AccurateRip ID: 000d8b16-005a9eaa-6c09f508] disk not present in database.

Track Peak [ CRC32 ] [W/O NULL] [ LOG ]
-- 100,0 [8B629DCC] FA31DC4 CRC32
01 86,8 [671E52B1] [100CAD7F]
02 99,9 [8330DAFC] [68A35E1C]
03 91,6 [E481A353] [02F17EE2]
04 97,0 [81E42CC5] [4DACA085]
05 100,0 [0CE51EBC] [484A1019]
06 81,3 [1E1527B4] [D7C59B47]
07 90,2 [A60A2B7B] 70556EA
08 75,1 [9AA93EB4] [35E2976D]

http://i47.fastpic.ru/big/2015/0512/2e/8849ff88312c8d9bbfd298689704452e.jpg

DOWNLOAD LINKS:
Buy Premium To Support Me & Get Resumable Support & Max Speed


Links are Interchangeable - No Password - Single Extraction

Fleetwood Mac - Future Games (1971) [1990, Warner-Pioneer, WPCP-3403] Fast Download


Ad2

 
 
 
Dear visitor, you went to the site as an unregistered user. We encourage you to register or enter the site under your name.
 
   
 
 (Votes #: 0)