2013Zone For Latest Downloads

 
     
 
Legal Downloads » TV Shows » History Channel - USS Bowfin: Pearl Harbor Avenger (2005)
Menu
Home Applications
Games Movies
Music TV Shows
Torrents Graphics

Sitemap

RSS
 
Advanced Search
Last News
Site Info
Top Contributors:
  1    supper88 32766
  2    admin 32711
  3    Whisky 10080
  4    Shark_ 8911
  5    creativelivenew 8706
  6    whathesupa 2799
  7    candymypost 840
  8    hvnteam 629
  9    vuong87 3


Articles:
  This Hour: 0
  Today: 0
  This Month: 12
  All Time: 515506


Torrents:
  Today: 0
  Yesterday: 0
  All Time: 156680


Membership:
  Registered Today :0
  This Hour:0
  This Month:0
  Total:14
  Banned:1

{online}
{inform_torrent}
Friend:
Full Download Scripts
Torrent Download
Trend
Trend

Search In Site

TV Shows : History Channel - USS Bowfin: Pearl Harbor Avenger (2005)
 

http://i71.fastpic.ru/big/2015/0519/6a/b81489a09e797b45610f959f36bd516a.jpg
History Channel - USS Bowfin: Pearl Harbor Avenger (2005)
DVDRip | 720x544 | .AVI/DivX @ 2485 Kbps | 45mn 27s | Audio: English AC3 256 kbps, 2 channels | Subs: None | 895 MiB
Genre: Documentary | History

"The submarine USS Bowfin made nine patrol runs during WWII, all packed with hair-raising adventures. In the course of sinking some 175,000 tons of Japanese shipping, the Bowfin faced an increasingly sophisticated Japanese anti-submarine campaign and endured vicious depth bomb and surface attacks. The boat aided guerrillas in the Philippines, hunted in wolfpacks, rescued downed flyers, and scourged the Japanese throughout the war under command of various colorful skippers. The Bowfin has been gorgeously restored and is berthed next to the USS Missouri at Pearl Harbor. This is her glorious story."

General
Complete name : HC.USS.Bowfin.Pearl.Harbor.Avenger.avi
Format
: AVI
Format/Info
: Audio Video Interleave
File size
: 895 MiB
Duration
: 45mn 27s
Overall bit rate : 2 753 Kbps

Video
ID : 0
Format
: MPEG-4 Visual
Format profile : Advanced [email protected]
Format settings, BVOP : 1
Format settings, QPel : No
Format settings, GMC : No warppoints
Format settings, Matrix : Default (MPEG)
Codec ID
: DX50
Codec ID/Hint : DivX 5
Duration
: 45mn 27s
Bit rate
: 2 485 Kbps
Width
: 720 pixels
Height
: 544 pixels
Display aspect ratio : 4:3
Frame rate
: 29.970 fps
Color space
: YUV
Chroma subsampling

: 4:2:0
Bit depth
: 8 bits
Scan type
: Progressive
Compression mode : Lossy
Bits/(Pixel*Frame)

: 0.212
Stream size
: 808 MiB (90%)
Writing library : XviD 1.2.1 (UTC 2008-12-04)

Audio
ID : 1
Format
: AC-3
Format/Info
: Audio Coding 3
Mode extension : CM (complete main)
Format settings, Endianness : Big
Codec ID
: 2000
Duration
: 45mn 27s
Source duration : 45mn 27s
Bit rate mode : Constant
Bit rate
: 256 Kbps
Channel(s)
: 2 channels
Channel positions: Front: L R
Sampling rate : 48.0 KHz
Bit depth
: 16 bits
Compression mode : Lossy
Stream size
: 83.2 MiB (9%)
Alignment
: Aligned on interleaves
Interleave, duration : 33 ms (1.00 video frame)

Screenshots:

http://i69.fastpic.ru/big/2015/0519/43/b8a4f1bd0b460d0fa091d8ae16cba343.jpg

http://i69.fastpic.ru/big/2015/0519/44/abf6297f0581f72f071d4b1ae5212544.jpg

http://i71.fastpic.ru/big/2015/0519/9f/dd876f23bacec6af006211df4016e69f.jpg

http://i70.fastpic.ru/big/2015/0519/18/a554a9641a57ffcb041cd54cba9d8018.jpg


DOWNLOAD LINKS:
Buy Premium To Support Me & Get Resumable Support & Max Speed


Links are Interchangeable - No Password - Single Extraction

History Channel - USS Bowfin: Pearl Harbor Avenger (2005) Fast Download



 
 
 
Dear visitor, you went to the site as an unregistered user. We encourage you to register or enter the site under your name.
 
   
 
 (Votes #: 0)