2013Zone For Latest Downloads

 
     
 
Legal Downloads » TV Shows » The Human Experience (2008)
Menu
Home Applications
Games Movies
Music TV Shows
Torrents Graphics

Sitemap

RSS
 
Advanced Search
Last News
Site Info
Top Contributors:
  1    supper88 32766
  2    admin 32671
  3    Whisky 10080
  4    Shark_ 8911
  5    creativelivenew 8706
  6    whathesupa 2799
  7    candymypost 840
  8    hvnteam 629
  9    vuong87 3


Articles:
  This Hour: 0
  Today: 0
  This Month: 59
  All Time: 515636


Torrents:
  Today: 0
  Yesterday: 0
  All Time: 156702


Membership:
  Registered Today :0
  This Hour:0
  This Month:0
  Total:14
  Banned:1

{online}
{inform_torrent}
Friend:
We Recomend
Trend
Trend

Search In Site

TV Shows : The Human Experience (2008)
 
http://i69.fastpic.ru/big/2015/0604/01/85d793162e14bdd4de87cb9f28218e01.jpg

The Human Experience (2008)
HDTV | 1280x534 | MKV/x264 @ 3908 Kbps | 89mn | Audio: English AC3 384 kbps, 6 channels | Subs: None | 2.74 GB
Genre: Documentary

The story of a band of brothers who travel the world in search of the answers to the burning questions: Who am I? Who is Man? Why do we search for meaning? Their journey brings them into the middle of the lives of the homeless on the streets of New York City, the orphans and disabled children of Peru, and the abandoned lepers in the forests of Ghana, Africa. What the young men discover changes them forever. Through one on one interviews and real life encounters, the brothers are awakened to the beauty of the human person and the resilience of the human spirit.
More info

Video
ID
: 1
Format : AVC
Format/Info

: Advanced Video Codec
Format profile : [email protected]
Format settings, CABAC : No
Format settings, ReFrames : 2 frames
Codec ID : V_MPEG4/ISO/AVC
Duration : 1h 29mn
Bit rate mode : Variable
Bit rate : 3 908 Kbps
Width : 1 280 pixels
Height : 534 pixels
Display aspect ratio : 2.35:1
Frame rate

: 23.976 fps
Color space

: YUV
Chroma subsampling : 4:2:0
Bit depth: 8 bits
Scan type: Progressive
Bits/(Pixel*Frame) : 0.238
Stream size

: 2.44 GiB (89%)
Language : English
Color primaries : BT.709-5, BT.1361, IEC 61966-2-4, SMPTE RP177
Transfer characteristics : BT.709-5, BT.1361
Matrix coefficients : BT.709-5, BT.1361, IEC 61966-2-4 709, SMPTE RP177

Audio
ID
: 2
Format : AC-3
Format/Info

: Audio Coding 3
Mode extension : CM (complete main)
Codec ID : A_AC3
Duration : 1h 29mn
Bit rate mode : Constant
Bit rate : 384 Kbps
Channel(s)

: 6 channels
Channel positions : Front: L C R, Side: L R, LFE
Sampling rate : 48.0 KHz
Bit depth: 16 bits
Compression mode : Lossy
Stream size

: 246 MiB (9%)
Language : English

Text
ID
: 3
Format : UTF-8
Codec ID : S_TEXT/UTF8
Codec ID/Info : UTF-8 Plain Text
Title : CC
Language : English

Menu
00:00:00.000 : en:Home at St. Francis
00:05:05.000 : en:The Homeless Experience
00:15:22.000 : en:Life Worth Living
00:26:03.000 : en:Surfing Samaritans
00:35:47.000 : en:The Kids Are All Right
00:48:52.000 : en:Down In Africa
00:58:20.000 : en:The Way To Peace
01:06:03.000 : en:Something In Common
01:18:00.000 : en:The Gift
01:24:30.000 : en:End Credits

http://i72.fastpic.ru/big/2015/0604/35/fa79d7ed02c99ae0de74b551cd690035.jpg


DOWNLOAD LINKS:
Buy Premium To Support Me & Get Resumable Support & Max Speed


Links are Interchangeable - No Password - Single Extraction

 
 
 
Dear visitor, you went to the site as an unregistered user. We encourage you to register or enter the site under your name.
 
   
 
 (Votes #: 0)