2013Zone For Latest Downloads

 
     
 
Legal Downloads » Music » James Last - La Paloma (1969, reissue 1994, Karussell # 550 658-2)
Menu
Home Applications
Games Movies
Music TV Shows
Torrents Graphics

Sitemap

RSS
 
Advanced Search
Last News
Site Info
Top Contributors:
  1    supper88 32766
  2    admin 32671
  3    Whisky 10080
  4    Shark_ 8911
  5    creativelivenew 8706
  6    whathesupa 2799
  7    candymypost 840
  8    hvnteam 629
  9    vuong87 3


Articles:
  This Hour: 0
  Today: 0
  This Month: 58
  All Time: 515616


Torrents:
  Today: 0
  Yesterday: 0
  All Time: 156702


Membership:
  Registered Today :0
  This Hour:0
  This Month:0
  Total:14
  Banned:1

{online}
{inform_torrent}
Friend:
We Recomend
Trend
Trend
Ad1

Search In Site

Music : James Last - La Paloma (1969, reissue 1994, Karussell # 550 658-2)
 

http://i69.fastpic.ru/big/2015/0604/75/f577120bb8190e8a38a613aaf03f4a75.jpg
James Last - La Paloma
EAC+LOG+CUE | FLAC: 171 MB | Full Artwork: 23 MB | 5% Recovery Info
Label/Cat#: Karussell # 550 658-2 | Country/Year: Germany 1994, 1969
Genre: Pop, Jazz, Folk | Style: Easy Listening, Instrumental, Sailors Songs

""James Last is a German big band leader with a large fan base in Europe, although he has never had a comparable following in the United States. Last's trademark is arranging pop hits in a big-band style; his series of "party albums" is equally well-known. Over the course of his career, he has sold well over 50 million albums.""



http://i71.fastpic.ru/big/2015/0604/4d/4b3b88db1bc402cc191b0a009e24084d.jpg



Exact Audio Copy V1.0 beta 3 from 29. August 2011

EAC extraction logfile from 8. October 2013, 14:29

James Last / La Paloma

Used drive : PIONEER BD-RW BDR-206 Adapter: 0 ID: 2

Read mode : Secure
Utilize accurate stream : Yes
Defeat audio cache : Yes
Make use of C2 pointers : No

Read offset correction

: 667
Overread into Lead-In and Lead-Out : No
Fill up missing offset samples with silence : Yes
Delete leading and trailing silent blocks : No
Null samples used in CRC calculations : Yes
Used interface
: Native Win32 interface for Win NT & 2000

Used output format : User Defined Encoder
Selected bitrate : 1024 kBit/s
Quality : High
Add ID3 tag : Yes
Command line compressor : C:\Program Files\FLAC\flac.exe
Additional command line options : -5 -T "Artist=%artist%" -T "Title=%title%" -T "Album=%albumtitle%" -T "Date=%year%" -T "Tracknumber=%tracknr%" -T "Genre=%genre%" %source% -o %dest%

TOC of the extracted CD Track | Start | Length | Start sector | End sector
1 | 0:00.33 | 3:50.37 | 33 | 17319 2 | 3:50.70 | 4:18.13 | 17320 | 36682 3 | 8:09.08 | 3:53.50 | 36683 | 54207 4 | 12:02.58 | 3:04.00 | 54208 | 68007 5 | 15:06.58 | 3:26.00 | 68008 | 83457 6 | 18:32.58 | 4:36.25 | 83458 | 104182 7 | 23:09.08 | 3:04.37 | 104183 | 118019 8 | 26:13.45 | 3:30.63 | 118020 | 133832

Range status and errors

Selected range Filename F:\=== VINYL RIPS ===\=== EAC===\X FRESH RIP\James Last - La Paloma.wav Peak level 95.9 %
Extraction speed 6.2 X
Range quality 100.0 %
Copy CRC A43B6897
Copy OK

No errors occurred


AccurateRip summary

Track 1 accurately ripped (confidence 4) [E1EDCF82] (AR v1)
Track 2 accurately ripped (confidence 4) [CD8E7F75] (AR v1)
Track 3 accurately ripped (confidence 4) [CC4BAC7A] (AR v1)
Track 4 accurately ripped (confidence 4) [8FBFCF9C] (AR v1)
Track 5 accurately ripped (confidence 4) [19EC7149] (AR v1)
Track 6 accurately ripped (confidence 4) [CA76A9BE] (AR v1)
Track 7 accurately ripped (confidence 4) [27ED05D9] (AR v1)
Track 8 accurately ripped (confidence 4) [2DBE34CF] (AR v1)

All tracks accurately ripped

End of status report

---- CUETools DB Plugin V2.1.3

[CTDB TOCID: MkXxROiNTrM7vHdfgVzZUz6cdRg-] disk not present in database, Submit result: discs with pregaps not supported in this protocol version

==== Log checksum 7B9A33C55A2875107C4892E41E2F9799952B3A9B57457807B457512C3A078C52 ====

foobar2000 1.1.14a / Dynamic Range Meter 1.1.1
log date: 2013-10-10 14:02:33

------
Analyzed: James Last / La Paloma
------

DR Peak RMS Duration Track
------
DR12 -2.54 dB -18.36 dB 3:50 01-Nimm uns mit Kapitän - Einmal noch nach Bombay - Der Junge an der Reling
DR14 -0.66 dB -19.08 dB 4:18 02-Aloah oé - John Kanaka - Up She Goes
DR13 -1.15 dB -16.64 dB 3:54 03-The Banks Of Sacramento - What Shall We Do With The Drunken Sailer - Madagaskar
DR12 -4.94 dB -19.82 dB 3:04 04-The Wreck Of The ''John B'' - The Yellow Rose Of Texas
DR14 -0.85 dB -17.05 dB 3:26 05-Eine Sefahrt, die ist lustig - Heut' gehts an Bord - Das ist die Liebe der Ma...
DR12 -3.13 dB -18.59 dB 4:36 06-La Paloma - My Bonnie - Kari Waits For Me
DR12 -1.22 dB -16.07 dB 3:04 07-Wir lieben die Stuerme - The Color Flags - Hey, Hey, Hey!
DR13 -0.36 dB -17.15 dB 3:31 08-Good Night, Ladies - In der Heimat - Muß i denn
------

Number of tracks: 8
Official DR value: DR13

Samplerate: 44100 Hz
Channels: 2
Bits per sample: 16
Bitrate: 807 kbps
Codec: FLAC

CD Info:

James Last - La Paloma

Label: Karussell
Catalog#: 550 658-2
Format: CD, Album, Reissue
Country: Germany
Released: 1994, 1969
Genre: Pop, Folk
Style: Easy Listening, Instrumental, Sailors Songs

Tracklist:

1 Nimm uns mit Kapitän - Einmal noch nach Bombay - Der Junge an der Reling 3:50
2 Aloah oé - John Kanaka - Up She Goes 4:18
3 The Banks Of Sacramento - What Shall We Do With The Drunken Sailer - Madagaskar 3:54
4 The Wreck Of The ''John B'' - The Yellow Rose Of Texas 3:04
5 Eine Sefahrt, die ist lustig - Heut' gehts an Bord - Das ist die Liebe der Ma... 3:26
6 La Paloma - My Bonnie - Kari Waits For Me 4:36
7 Wir lieben die Stuerme - The Color Flags - Hey, Hey, Hey! 3:04
8 Good Night, Ladies - In der Heimat - Muß i denn 3:31

CD is manufactured by PMDC

" Artist Biography by Stephen Thomas Erlewine

James Last is a German big band leader with a large fan base in Europe, although he has never had a comparable following in the United States. Last's trademark is arranging pop hits in a big-band style; his series of "party albums" is equally well-known. Over the course of his career, he has sold well over 50 million albums.

Last learned how to play piano as child, switching to bass as a teenager. He joined Hans-Gunther Oesterreich's Radio Bremen Dance Orchestra in 1946, when he was 17 years old. In 1948, he became the leader of the Becker-Last Ensemble, which performed for seven years. During that time, he was voted as the best bassist in the country by a German jazz poll for three consecutive years, from 1950-1952. After the disbandment of the Becker-Last Ensemble, he became the in-house arranger for Polydor Records, as well as for a number of European radio stations. For the next decade, he helped arrange hits for artists like Helmut Zacharias and Caterina Valente.

Last released his first album, Non-Stop Dancing, in 1965. The record of brief renditions of popular songs, all tied together by an insistent dance beat and joyous crowd noises. It was a hit and helped make him a major European star. Over the next two decades, Last released over 50 records, including several more volumes of Non-Stop Dancing. On these records, he varied his formula by adding different songs from different countries and genres, as well as guest performers like Richard Clayderman and Astrud Gilberto.

Though his concerts and albums were consistently successful -- especially in England, where he had 52 hit albums between 1967-1986, which made him second to Elvis Presley in terms of number of charting records -- he only had one hit single with "The Seduction," the theme from American Gigolo (1980). ~allmusicguide"



http://i72.fastpic.ru/big/2015/0604/23/35f4b1d1db42deb4cb83fe6d35b91c23.jpg


DOWNLOAD LINKS:
Buy Premium To Support Me & Get Resumable Support & Max Speed


Links are Interchangeable - No Password - Single Extraction

James Last - La Paloma (1969, reissue 1994, Karussell # 550 658-2) Fast Download


Ad2

 
 
 
Dear visitor, you went to the site as an unregistered user. We encourage you to register or enter the site under your name.
 
   
 
 (Votes #: 0)