2013Zone For Latest Downloads

 
     
 
Legal Downloads » Music » Alan Vega - Station (2007)
Menu
Home Applications
Games Movies
Music TV Shows
Torrents Graphics

Sitemap

RSS
 
Advanced Search
Last News
Site Info
Top Contributors:
  1    supper88 32766
  2    admin 32671
  3    Whisky 10080
  4    Shark_ 8911
  5    creativelivenew 8706
  6    whathesupa 2799
  7    candymypost 840
  8    hvnteam 629
  9    vuong87 3


Articles:
  This Hour: 0
  Today: 0
  This Month: 58
  All Time: 515616


Torrents:
  Today: 0
  Yesterday: 0
  All Time: 156702


Membership:
  Registered Today :0
  This Hour:0
  This Month:0
  Total:14
  Banned:1

{online}
{inform_torrent}
Friend:
We Recomend
Trend
Trend
Ad1

Search In Site

Music : Alan Vega - Station (2007)
 
http://i72.fastpic.ru/big/2015/0604/0f/b7970ab4a39f864d32afc23651770c0f.jpg

Alan Vega - Station (2007)
Electronic | 1cd | EAC Rip | Flac + Cue + Log | covers
Blast First/Mute, BFFP194CD | rel: 2007 | 440Mb

On Station's "GunGodGame", Alan Vega sounds like Jack Kerouac on the eve of drinking himself to death, both in sentiment and poetic cadence. The "humiliations" and attempts at "trying to bring back what's not there" haunt him. But Alan Vega has never given up. His mission is to rekindle love and dreams and rail against authority's disdain for both. 2007's Station, filled with several successful stabs, is proof that he won't quit until he's gone, and even then his legacy will remain. An audacious human being, he's felt comfortable presiding over both literal and musical riots, contributing to punk, industrial, and electronic music, as well as rebellion and literature in the process. It's a wonder and a privilege that he's still around.
Ironically, though, Vega's potent living legacy can sometimes work against him. Still putting out records and performing live with Suicide partner Martin Rev, he correctly views himself as a contemporary artist. But his current output will always and immediately be compared against the early Suicide recordings. Given the immensity of a "Ghost Rider" or "Frankie Teardrop", and that the early Suicide compositions sound as relevant as ever, Vega's new music is perhaps rendered a thankless task. Clearly, though, Vega is not out for gratitude. As soon as the disc opens with "Freedom's Smashed", he shouts "I see it / Our freedom's gone". As plainly spoken and direct as "Ghost Rider"?s immemorial "America is killin' its youth", this cements Vega's rep as the town crier and places Station squarely in modern political times. As "Freedom's Smashed" plays on, helicopter blades in the wind, the repetition takes hold until Vega forces the listener to see what he's talking about.
It's apropos that the album begins with Vega pointing toward something on the horizon. Lyrically, he is focused on the sky for much of the album, looking for a savior or a better day to appear on Earth. On "Traceman", he brings in Liz Lamere, who sounds eerily like the female voices from a Sun Ra recording. "Traceman" takes on a Christian air as Vega repeats, "It came from the sky / To die / Lookin' for a human". Much of Vega's work has always been about the want for human connection, and the subsequent lack thereof, and "Traceman" follows in that tradition. In many ways, his words and music (along with Rev) have offered an aural equivalent of Hubert Selby Jr.'s prose; a slimy sense of humanity's failure, but also a belief in its salvation. If the sky exists, there might be hope.
This belief withstanding, Vega sounds angry and desperate on this album, at his wit's end. There's little melody and no pop flirtation, no easy beauty or minimal rockabilly. These all characterized some of his past endeavors. As a whole, this disc is dark and repetitive and, for the most part, Vega either speaks or screams throughout it, rather than singing. His most blood curdling yells are reserved for Stationcloser "Devastated", where he howls the title and holds it like life is draining from him. It's a performance that cannot be faked, and it remains laudable that Vega can express true feeling in the face of plastic product.
At the same time, it's his authenticity and willingness to throw it all out there that leads to several album missteps. "SS Eyes" comes off as sophomoric goth poetry, with its warbling refrain of "Daddy angel came / Swastika eyes" over a negligible video game soundtrack. And really, though many musical set-ups work-the hypnotic acid house of "GunGodGame" or the bouncy drum machines of "Psychopatha"-moments like the dated electro futurism of "13 Crosses, 16 Blazin' Skulls" or the rote techno of "WARRIOR! FIGHT FOR YOUR LIFE!" harm the album's possibly effective cohesion.
Across this spectrum, the unifying strands of Stationare its second track, "Station, Station", and the aforementioned finale, "Devastated." On "Station, Station", Vega affirms he is the dreamer's champion. He shares his view-"There was a time you could dream / Now it has become a crime to dream"-while all the same encouraging everyone to just keep going. On "Devastated", he lets loose with the decidedly uncool question, "How's the future gonna play out / For our kids?" This is the beating heart in Alan Vega that loves people and demands a consideration of what happens when our freedom is gone and we deny our vision. Vega is a punk who once destroyed song craft as it was known, and who played in a band called Suicide. Though it might make diehard punk nihilists cringe, the efforts of Station, and what will surely be more shows and records, update the message of "suicide". Yes, it is about killing yourself, but not as an end unto itself. It's a means to waken up to the people around you-and to wake up the people around you-and help them realize their possibilities.~Popmatters

Track listing
01. Freedom's Smashed (5:28)
02. Station Station (5:40)
03. Psychopatha (5:48)
04. Crime Street Cree (6:08)
05. Traceman (5:19)
06. Gun God Game (5:51)
07. 13 Crosses 16 Blazin' Skulls (5:24)
08. Ss Eyes (6:18)
09. Why Could'nt It Be You (4:30)
10. Warrior Fight Fa Ya Life (5:09)
11. Devastated (6:35)
~ (62:10)

Exact Audio Copy V0.99 prebeta 3 from 28. July 2007

EAC extraction logfile from 27. October 2010, 22:08

Alan Vega / Station

Used drive : _NEC DVD_RW ND-2510A Adapter: 1 ID: 0

Read mode : Secure
Utilize accurate stream : Yes
Defeat audio cache : Yes
Make use of C2 pointers : No

Read offset correction

: 48
Overread into Lead-In and Lead-Out : No
Fill up missing offset samples with silence : Yes
Delete leading and trailing silent blocks : No
Null samples used in CRC calculations : Yes
Used interface
: Native Win32 interface for Win NT & 2000

Used output format : User Defined Encoder
Selected bitrate : 1024 kBit/s
Quality : High
Add ID3 tag : No
Command line compressor : C:\Program Files\Exact Audio Copy\Flac\flac.exe
Additional command line options : -8 -V %s

TOC of the extracted CD Track | Start | Length | Start sector | End sector
1 | 0:00.00 | 5:27.67 | 0 | 24591 2 | 5:27.67 | 5:40.05 | 24592 | 50096 3 | 11:07.72 | 5:47.71 | 50097 | 76192 4 | 16:55.68 | 6:07.59 | 76193 | 103776 5 | 23:03.52 | 5:18.65 | 103777 | 127691 6 | 28:22.42 | 5:51.02 | 127692 | 154018 7 | 34:13.44 | 5:23.66 | 154019 | 178309 8 | 39:37.35 | 6:18.37 | 178310 | 206696 9 | 45:55.72 | 4:30.15 | 206697 | 226961
10 | 50:26.12 | 5:09.20 | 226962 | 250156
11 | 55:35.32 | 6:35.05 | 250157 | 279786

Range status and errors

Selected range Filename I:\Раздача музыки Torrents\Vega, Alan\Station (2007)\Alan Vega - Station.wav Peak level 100.0 %
Range quality 100.0 %
Test CRC 4E263E32
Copy CRC 4E263E32
Copy OK

No errors occurred


AccurateRip summary

Track 1 accurately ripped (confidence 1) [4DBDF72A]
Track 2 accurately ripped (confidence 1) [00DD22DA]
Track 3 accurately ripped (confidence 1) [38883989]
Track 4 accurately ripped (confidence 1) 2BCACE3
Track 5 accurately ripped (confidence 1) [A43BD5C7]
Track 6 accurately ripped (confidence 1) [C01B255B]
Track 7 accurately ripped (confidence 1) [A0D481BB]
Track 8 accurately ripped (confidence 1) [2461778A]
Track 9 accurately ripped (confidence 1) [6B48032B]
Track 10 accurately ripped (confidence 1) [33009C1F]
Track 11 accurately ripped (confidence 1) [56749977]

All tracks accurately ripped

End of status report

[CUETools log; Date: 2015.06.01. 11:36:51; Version: 2.1.5]
[CTDB TOCID: W_k8m_pexBfGLRWIoT12i9Mwzic-] disk not present in database.
[AccurateRip ID: 00199bcb-00ddc162-9e0e920b] found.
Track [ CRC | V2 ] Status
01 [4dbdf72a|df20f65c] (2+0/2) Accurately ripped
02 [00dd22da|b9ee4a85] (2+0/2) Accurately ripped
03 [38883989|41696e46] (2+0/2) Accurately ripped
04 2bcace3|84390443 (2+0/2) Accurately ripped
05 [a43bd5c7|31ce4901] (2+0/2) Accurately ripped
06 [c01b255b|b8951d52] (2+0/2) Accurately ripped
07 [a0d481bb|88f2fc29] (1+0/2) Accurately ripped
08 [2461778a|5519c6f3] (1+0/2) Accurately ripped
09 [6b48032b|1c5a598e] (1+0/1) Accurately ripped
10 [33009c1f|a12c62c3] (1+0/1) Accurately ripped
11 [56749977|13154d5a] (1+0/1) Accurately ripped

Track Peak [ CRC32 ] [W/O NULL] [ LOG ]
-- 100,0 [4E263E32] 268A627 CRC32
01 100,0 [431FF596] [28069E6F]
02 81,6 [8BCDD405] 83635D5
03 100,0 [96E8811C] [8DF77E19]
04 100,0 [6BADA5B8] [3AC320C3]
05 72,9 [6B374856] [4AB1BF65]
06 100,0 [86D03E3D] [A430CB9A]
07 100,0 [CF6AFDF6] [DFA18026]
08 66,8 [388ECE85] [E8461E69]
09 82,3 [4D43D67E] [E17C0D16]
10 73,7 [9A659D2B] [59A7C6B8]
11 77,9 [579D9782] [5F981077]

Thx to glebchic
DOWNLOAD LINKS:
Buy Premium To Support Me & Get Resumable Support & Max Speed


Links are Interchangeable - No Password - Single Extraction



Ad2

 
 
 
Dear visitor, you went to the site as an unregistered user. We encourage you to register or enter the site under your name.
 
   
 
 (Votes #: 0)