2013Zone For Latest Downloads

 
     
 
Legal Downloads » TV Shows » The Distorted Island: Heavy Metal music and community in Puerto Rico (2015)
Menu
Home Applications
Games Movies
Music TV Shows
Torrents Graphics

Sitemap

RSS
 
Advanced Search
Last News
Site Info
Top Contributors:
  1    supper88 32766
  2    admin 32671
  3    Whisky 10080
  4    Shark_ 8911
  5    creativelivenew 8706
  6    whathesupa 2799
  7    candymypost 840
  8    hvnteam 629
  9    vuong87 3


Articles:
  This Hour: 0
  Today: 0
  This Month: 40
  All Time: 515636


Torrents:
  Today: 0
  Yesterday: 0
  All Time: 156702


Membership:
  Registered Today :0
  This Hour:0
  This Month:0
  Total:14
  Banned:1

{online}
{inform_torrent}
Friend:
We Recomend
Trend
Trend

Search In Site

TV Shows : The Distorted Island: Heavy Metal music and community in Puerto Rico (2015)
 
http://i69.fastpic.ru/big/2015/0604/0d/1cc3024001046add339ea630d2a2a60d.jpg

The Distorted Island: Heavy Metal music and community in Puerto Rico (2015)
DVD-5 | 720x480 | VOB/XviD @ 3536 Kbps | 117mn | Audio: Spanish PCM 1536 kbps, 2 channels | Subs: English | 4.32 GB
Genre: Documentary

This documentary explores the emergence and maintenance of a metal scene in a Caribbean island. It addresses how local bands have survived for 30 years via strong community ties, while also highlighting the cultural and historical challenges faced along the way.
More info

Video
ID
: 224 (0xE0)
Format : MPEG Video
Format version : Version 2
Format profile : [email protected]
Format settings, BVOP : Yes
Format settings, Matrix : Default
Format settings, GOP : M=3, N=15
Duration : 27mn 39s
Bit rate mode : Variable
Bit rate : 3 536 Kbps
Nominal bit rate : 7 000 Kbps
Width : 720 pixels
Height : 480 pixels
Display aspect ratio : 16:9
Frame rate

: 29.970 fps
Standard : NTSC
Color space

: YUV
Chroma subsampling : 4:2:0
Bit depth: 8 bits
Scan type: Interlaced
Scan order

: Top Field First
Compression mode : Lossy
Bits/(Pixel*Frame) : 0.341
Stream size

: 700 MiB (68%)

Audio
ID
: 160 (0xA0)
Format : PCM
Format settings, Endianness : Big
Format settings, Sign : Signed
Muxing mode

: DVD-Video
Duration : 27mn 39s
Bit rate mode : Constant
Bit rate : 1 536 Kbps
Channel(s)

: 2 channels
Channel positions : Front: L R
Sampling rate : 48.0 KHz
Bit depth: 16 bits
Stream size

: 304 MiB (30%)

Menu

http://i71.fastpic.ru/big/2015/0604/79/8700647077575d26b545be6d610dc779.jpg


DOWNLOAD LINKS:
Buy Premium To Support Me & Get Resumable Support & Max Speed


Links are Interchangeable - No Password - Single Extraction

 
 
 
Dear visitor, you went to the site as an unregistered user. We encourage you to register or enter the site under your name.
 
   
 
 (Votes #: 0)