2013Zone For Latest Downloads

 
     
 
Legal Downloads » Music » Daevid Allen - Bananamoon Obscura No. 17: Guru & Zero - Beauty And The Basket Case (2006)
Menu
Home Applications
Games Movies
Music TV Shows
Torrents Graphics

Sitemap

RSS
 
Advanced Search
Last News
Site Info
Top Contributors:
  1    supper88 32766
  2    admin 32671
  3    Whisky 10080
  4    Shark_ 8911
  5    creativelivenew 8706
  6    whathesupa 2799
  7    candymypost 840
  8    hvnteam 629
  9    vuong87 3


Articles:
  This Hour: 0
  Today: 0
  This Month: 58
  All Time: 515616


Torrents:
  Today: 0
  Yesterday: 0
  All Time: 156702


Membership:
  Registered Today :0
  This Hour:0
  This Month:0
  Total:14
  Banned:1

{online}
{inform_torrent}
Friend:
We Recomend
Trend
Trend
Ad1

Search In Site

Music : Daevid Allen - Bananamoon Obscura No. 17: Guru & Zero - Beauty And The Basket Case (2006)
 
http://i69.fastpic.ru/big/2015/0604/30/c025a4a8f94f96e93574241be8c91830.jpg

Daevid Allen - Bananamoon Obscura No. 17: Guru & Zero - Beauty And The Basket Case (2006)
EAC Rip | FLAC (Img) + Cue + Log ~ 459 Mb | MP3 CBR320 ~ 177 Mb
Scans Included (JPG, 600 dpi) | RAR 5% Recovery
Prog/Psychedelic Rock, Canterbury Scene | Voiceprint #BMOVP017CD

"The first spontaneous concerts twixt Daevid and the Acid Mother Temple members: Makoto and Cotton in the USA 2002. These recordings have been selected from the 2nd gig at the Egglake Festival in 2002 and the 3rd gig at the Hemlock in San Francisco, 31.8.02. All tracks written and composed by daevid allen, Cotton Casino and Kawabata Makoto. These CDs are in matt black card covers with silver and white printing. This is the seventeenth of a 20CD series, each release a limited pressing of 1000 copies only - no more will be pressed."

***************
Daevid Allen was one of the founders of the British progressive rock band the Soft Machine in 1966. After recording just one album with the group, he became the founder/leader of Gong, which he left in 1973 to begin a solo career (though his first solo album, Banana Moon, was released in 1971 while he was still in the group). Allen explored his quirky, folky take on rock throughout the '70s and '80s on albums like 1976's Good Morning and 1983's Alien in New York. His solo work also included collaborations with underground rock impresario Kramer like 1993's Who's Afraid? and 1996's Hit Men, which was released on Kramer's Shimmy Disc label. Allen returned in 1999 with Money Doesn't Make It, followed a year later by Stroking the Tail of the Bird. Nectans Glen also followed in 2000. In 2003 Allen formed a new version of Gong with members of the Japanese collective known as Acid Mothers Temple, as well as playing and releasing material with his California-based band University of Errors. He continues to release numerous live sets and one-off collaborations in limited editions on various independent labels under his own and various group names. A best-of, Man From Gong, which only scratches the surface of his lengthy discography, appeared from Snapper Music in 2006. After a battle with cancer, Allen died in Australia in 13 March 2015 at the age of 77.
~ William Ruhlmann, All Music Guide

Official Page | Wiki | Discogs | All Music
***************

http://i72.fastpic.ru/big/2015/0604/2c/4c704acdca431006177c1c89ddaf7f2c.jpg

Track List:

01. Coolbrow Cathartonica (Boiled Egglake) [06:33]
02. Thus Spake Lady Cottonade (Fried Egglake) [07:54]
03. Gentlemen Strolling On A Fine Line (OM-Lette) [00:52]
04. The Egg Dragon's Glittering Eyes (Scrambled Egglake) [10:19]
05. Oh Go OH YEAH (Hemlocksfo Jesu Grill) [02:33]
06. Vegan Feedback Smoothie Please (Hsfo Muzzleman Gridlock) [06:23]
07. Psycho Delicate Hessianskin (Hsfo Robblnat Goldclampervan) [04:58]
08. Elastic Beaverzip Cadenza (Hsfo Sri Babacloo Sidahltrip) [08:32]
09. Dead Lady Humanoid The Return (Hsfo Goddex Crustica) [05:32]
10. The Stranger In The Tights (Hsfo Zoozen Boo) [02:08]
11. Goodnight Nusery (Hsfomigodquick) [10:49]

Personnel:
Cotton Casino - Zen synth and very unusual vocals
daevid allen - Conditioned vocals, gliss and gutter guitar, worrying behaviour
Kawabata Makoto - Very loud guitars, gentlemanly lute and lubricated utterances

Exact Audio Copy V1.0 beta 3 from 29. August 2011

EAC extraction logfile from 4. May 2014, 12:28

Guru & Zero / Beauty and the Basket Case (Obscura No.17)

Used drive : PIONEER DVD-RW DVR-220RS Adapter: 0 ID: 0

Read mode : Secure
Utilize accurate stream : Yes
Defeat audio cache : Yes
Make use of C2 pointers : No

Read offset correction

: 6
Overread into Lead-In and Lead-Out : No
Fill up missing offset samples with silence : Yes
Delete leading and trailing silent blocks : No
Null samples used in CRC calculations : Yes
Used interface
: Native Win32 interface for Win NT & 2000

Used output format : User Defined Encoder
Selected bitrate : 128 kBit/s
Quality : High
Add ID3 tag : No
Command line compressor : C:\Program Files (x86)\Exact Audio Copy\Wavpack\wavpack.exe
Additional command line options : -hlm %source% %dest%

TOC of the extracted CD Track | Start | Length | Start sector | End sector
1 | 0:00.00 | 6:32.55 | 0 | 29454 2 | 6:32.55 | 7:54.00 | 29455 | 65004 3 | 14:26.55 | 0:51.15 | 65005 | 68844 4 | 15:17.70 | 10:18.60 | 68845 | 115254 5 | 25:36.55 | 2:33.00 | 115255 | 126729 6 | 28:09.55 | 6:23.00 | 126730 | 155454 7 | 34:32.55 | 4:57.30 | 155455 | 177759 8 | 39:30.10 | 8:31.45 | 177760 | 216129 9 | 48:01.55 | 5:31.74 | 216130 | 241028
10 | 53:33.54 | 2:07.01 | 241029 | 250554
11 | 55:40.55 | 10:48.57 | 250555 | 299211

Range status and errors

Selected range Filename C:\NL+\CD17\Guru & Zero - Beauty and the Basket Case (Obscura No.17).wav Peak level 98.8 %
Extraction speed 1.9 X
Range quality 100.0 %
Test CRC 4AC5F223
Copy CRC 4AC5F223
Copy OK

No errors occurred


AccurateRip summary

Track 1 accurately ripped (confidence 1) [191D9085] (AR v2)
Track 2 accurately ripped (confidence 1) [FCA61D08] (AR v2)
Track 3 accurately ripped (confidence 1) [C3187351] (AR v2)
Track 4 accurately ripped (confidence 1) [ACC81970] (AR v2)
Track 5 accurately ripped (confidence 1) [09002656] (AR v2)
Track 6 accurately ripped (confidence 1) 2A6A904 (AR v2)
Track 7 accurately ripped (confidence 1) [4136775A] (AR v2)
Track 8 accurately ripped (confidence 1) [D8EF68F5] (AR v2)
Track 9 accurately ripped (confidence 1) [E7942236] (AR v2)
Track 10 accurately ripped (confidence 1) [EBFF65C9] (AR v2)
Track 11 accurately ripped (confidence 1) [8B2F0F71] (AR v2)

All tracks accurately ripped

End of status report

---- CUETools DB Plugin V2.1.3

[CTDB TOCID: K1qD1DG1grlbU3TtdwlOjbwKPIA-] found, Submit result: K1qD1DG1grlbU3TtdwlOjbwKPIA- has been confirmed
[aab1ee1b] (1/1) Accurately ripped

==== Log checksum 507841D2384241E8D6B644357DCBA018FAC0CC38A4F2FD6F438367702D696C58 ====

foobar2000 1.2.6 / Dynamic Range Meter 1.1.1
log date: 2015-05-29 22:51:25

------
Analyzed: Guru & Zero / Beauty and the Basket Case (Obscura No.17)
------

DR Peak RMS Duration Track
------
DR8 -0.45 dB -9.90 dB 6:33 01-Coolbrow Cathartonica (Boiled Egglake)
DR7 -0.66 dB -10.26 dB 7:54 02-Thus Spake Lady Cottonade (Fried Egglake)
DR7 -1.00 dB -10.89 dB 0:51 03-Gentlemen Strolling On A Fine Line (OM-Lette)
DR9 -0.72 dB -10.99 dB 10:19 04-The Egg Dragon's Glittering Eyes (Scrambled Egglake)
DR4 -0.94 dB -6.18 dB 2:33 05-Oh Go OH YEAH (Hemlocksfo Jesu Grill)
DR5 -0.48 dB -7.37 dB 6:23 06-Vegan Feedback Smoothie Please (Hsfo Muzzleman Gridlock)
DR5 -0.54 dB -6.94 dB 4:57 07-Psycho Delicate Hessianskin (Hsfo Robblnat Goldclampervan)
DR2 -0.40 dB -4.36 dB 8:32 08-Elastic Beaverzip Cadenza (Hsfo Sri Babacloo Sidahltrip)
DR5 -0.10 dB -7.07 dB 5:32 09-Dead Lady Humanoid The Return (Hsfo Goddex Crustica)
DR9 -1.25 dB -12.66 dB 2:07 10-The Stranger In The Tights (Hsfo Zoozen Boo)
DR5 -0.45 dB -7.74 dB 10:49 11-Goodnight Nusery (Hsfomigodquick)
------

Number of tracks: 11
Official DR value: DR6

Samplerate: 44100 Hz
Channels: 2
Bits per sample: 16
Bitrate: 885 kbps
Codec: FLAC

[CUETools log; Date: 29.05.2015 22:51:55; Version: 2.1.5]
[CTDB TOCID: K1qD1DG1grlbU3TtdwlOjbwKPIA-] found.
Track | CTDB Status
1 | (2/2) Accurately ripped
2 | (2/2) Accurately ripped
3 | (2/2) Accurately ripped
4 | (2/2) Accurately ripped
5 | (2/2) Accurately ripped
6 | (2/2) Accurately ripped
7 | (2/2) Accurately ripped
8 | (2/2) Accurately ripped
9 | (2/2) Accurately ripped
10 | (2/2) Accurately ripped
11 | (2/2) Accurately ripped
[AccurateRip ID: 001aa217-00e613bf-a40f950b] found.
Track [ CRC | V2 ] Status
01 d56d758|191d9085 (0+2/2) Accurately ripped
02 7438abf|fca61d08 (0+2/2) Accurately ripped
03 [cd116e41|c3187351] (0+2/2) Accurately ripped
04 [6af10068|acc81970] (0+2/2) Accurately ripped
05 [38c83bce|09002656] (0+2/2) Accurately ripped
06 [e46b0d63|b2a6a904] (0+2/2) Accurately ripped
07 [3189a750|4136775a] (0+2/2) Accurately ripped
08 [f3f2531a|d8ef68f5] (0+2/2) Accurately ripped
09 [7941d2f1|e7942236] (0+2/2) Accurately ripped
10 [6096a7cc|ebff65c9] (0+2/2) Accurately ripped
11 [af65aa3a|8b2f0f71] (0+2/2) Accurately ripped

Track Peak [ CRC32 ] [W/O NULL] [ LOG ]
-- 98,8 [4AC5F223] [590C8A28] CRC32
01 94,9 [DAE51721] [E74E6A8F]
02 92,7 [887B3CA2] 24D5AC1
03 89,0 [02084AF3] [959979D4]
04 92,0 [0ADD021D] [F6C570D8]
05 89,7 [21F6ED5A] [0E596793]
06 94,5 [928008F7] [1D061214]
07 93,9 [0FEFB3F0] [5BA1D500]
08 95,5 [9B3E340A] [1F7344A5]
09 98,8 [E46FAA56] [92AC0848]
10 86,6 [9170477A] 86D7832
11 94,9 [8C96AA04] [11D67948]

http://i71.fastpic.ru/big/2015/0604/e7/f3466e852c48e23d4fec84cc3353c9e7.jpg


DOWNLOAD LINKS:
Buy Premium To Support Me & Get Resumable Support & Max Speed


Links are Interchangeable - No Password - Single Extraction

Daevid Allen - Bananamoon Obscura No. 17: Guru & Zero - Beauty And The Basket Case (2006) Fast Download


Ad2

 
 
 
Dear visitor, you went to the site as an unregistered user. We encourage you to register or enter the site under your name.
 
   
 
 (Votes #: 0)