2013Zone For Latest Downloads

 
     
 
Legal Downloads » Music » The Offspring - Greatest Hits (2005) [CD+DVD, Limited Edition]
Menu
Home Applications
Games Movies
Music TV Shows
Torrents Graphics

Sitemap

RSS
 
Advanced Search
Last News
Site Info
Top Contributors:
  1    supper88 32766
  2    admin 32671
  3    Whisky 10080
  4    Shark_ 8911
  5    creativelivenew 8706
  6    whathesupa 2799
  7    candymypost 840
  8    hvnteam 629
  9    vuong87 3


Articles:
  This Hour: 0
  Today: 0
  This Month: 40
  All Time: 515636


Torrents:
  Today: 0
  Yesterday: 0
  All Time: 156702


Membership:
  Registered Today :0
  This Hour:0
  This Month:0
  Total:14
  Banned:1

{online}
{inform_torrent}
Friend:
We Recomend
Trend
Trend

Search In Site

Music : The Offspring - Greatest Hits (2005) [CD+DVD, Limited Edition]
 
http://i71.fastpic.ru/big/2015/0604/c1/3cafc392f073421443f85e21b16329c1.jpg

The Offspring - Greatest Hits (2005)
EAC Rip | FLAC (Img) + Cue + Log ~ 438 Mb | MP3 CBR320 ~ 145 Mb
DVD-5 | ISO | Audio #1: DD 5.1, 48.0 kHz/16-bit, 448 Kbps | Audio #2: LPCM 2.0, 48.0 kHz/16-bit, 1536 kbps
MPEG-2, PAL 4:3 (720x576), 25.000 fps, VBR ~ 8000 Kbps | ~ 2,4 Gb | Covers Included (JPG, 300 dpi) | RAR 5% Recovery
Alternative Rock, Punk, Pop Rock | Columbia #COL 518746 3

"Greatest Hits is a 2005 compilation album by the American punk rock band The Offspring, compiling hit singles from five of their seven studio albums along with the previously unreleased songs "Can't Repeat" and "Next to You", the latter of which is a cover version of The Police song included as a hidden track at the end of the album. Greatest Hits peaked at no. 8 on the Billboard 200, with 70,000 copies sold in its first week of release, and has been certified Gold by the Recording Industry Association of America. The DVD has the same 14 tracks in 5.1 surround sound and PCM 2.0, commentary by singer Dexter Holland and guitarist Noodles, and the two performing an acoustic rendition of the song "Dirty Magic" from the band's second album Ignition."

Official Website | Wiki | Discogs | All Music
***************

http://i70.fastpic.ru/big/2015/0604/dc/32b7be24cb6426d0b43c577348efa9dc.jpg

http://i72.fastpic.ru/big/2015/0604/ea/4f1f1dda1c24be74627c612f535aefea.jpg

Track List:

01. Can't Repeat [03:27]
02. Come Out And Play [03:18]
03. Self Esteem [04:18]
04. Gotta Get Away [03:52]
05. All I Want [01:53]
06. Gone Away [04:28]
07. Pretty Fly (For A White Guy) [03:09]
08. Why Don't You Get A Job? [02:50]
09. The Kids Aren't Alright [03:00]
10. Original Prankster [03:41]
11. Want You Bad [03:23]
12. Defy You [03:49]
13. Hit That [02:49]
14. (Can't Get My) Head Around You [02:16]
15a. The Kids Aren't Alright (Remix)
15b. Next To You (Hidden Track) (Bonus) [08:37]

Exact Audio Copy V1.0 beta 3 from 29. August 2011

EAC extraction logfile from 2. June 2015, 6:15

The Offspring / Greatest Hits

Used drive : PLEXTOR BD-R PX-B940SA Adapter: 5 ID: 0

Read mode : Secure
Utilize accurate stream : Yes
Defeat audio cache : Yes
Make use of C2 pointers : No

Read offset correction

: 667
Overread into Lead-In and Lead-Out : No
Fill up missing offset samples with silence : Yes
Delete leading and trailing silent blocks : No
Null samples used in CRC calculations : Yes
Used interface
: Installed external ASPI interface

Used output format : User Defined Encoder
Selected bitrate : 128 kBit/s
Quality : High
Add ID3 tag : Yes
Command line compressor : G:\Program Files (x86)\Exact Audio Copy\Flac\flac.exe
Additional command line options : -V -8 -T "Date=%year%" -T "Genre=%genre%" %source%

TOC of the extracted CD Track | Start | Length | Start sector | End sector
1 | 0:00.00 | 3:26.39 | 0 | 15488 2 | 3:26.39 | 3:17.60 | 15489 | 30323 3 | 6:44.24 | 4:17.57 | 30324 | 49655 4 | 11:02.06 | 3:51.62 | 49656 | 67042 5 | 14:53.68 | 1:52.38 | 67043 | 75480 6 | 16:46.31 | 4:27.65 | 75481 | 95570 7 | 21:14.21 | 3:08.36 | 95571 | 109706 8 | 24:22.57 | 2:49.02 | 109707 | 122383 9 | 27:11.59 | 2:59.71 | 122384 | 135879
10 | 30:11.55 | 3:40.67 | 135880 | 152446
11 | 33:52.47 | 3:22.23 | 152447 | 167619
12 | 37:14.70 | 3:48.18 | 167620 | 184737
13 | 41:03.13 | 2:48.23 | 184738 | 197360
14 | 43:51.36 | 2:15.07 | 197361 | 207492
15 | 46:06.43 | 8:36.05 | 207493 | 246197

Range status and errors

Selected range Filename D:\MUSIC\The Offspring - Greatest Hits.wav Peak level 100.0 %
Extraction speed 4.5 X
Range quality 100.0 %
Test CRC C1472AEA
Copy CRC C1472AEA
Copy OK

No errors occurred


AccurateRip summary

Track 1 accurately ripped (confidence 100) [DE01CA70] (AR v2)
Track 2 accurately ripped (confidence 99) [7FD961E4] (AR v2)
Track 3 accurately ripped (confidence 99) [E4F33524] (AR v2)
Track 4 accurately ripped (confidence 98) [4E23E9E0] (AR v2)
Track 5 accurately ripped (confidence 100) [FF6E5F2C] (AR v2)
Track 6 accurately ripped (confidence 99) [C6B2FC56] (AR v2)
Track 7 accurately ripped (confidence 98) [0F599C8D] (AR v2)
Track 8 accurately ripped (confidence 98) [A7A6C2F0] (AR v2)
Track 9 accurately ripped (confidence 99) [CA4B046D] (AR v2)
Track 10 accurately ripped (confidence 97) [9EC59732] (AR v2)
Track 11 accurately ripped (confidence 99) [75F62FA3] (AR v2)
Track 12 accurately ripped (confidence 100) [357AF6C4] (AR v2)
Track 13 accurately ripped (confidence 100) [545E9D0A] (AR v2)
Track 14 accurately ripped (confidence 99) [AE680698] (AR v2)
Track 15 accurately ripped (confidence 95) [20E9FFA1] (AR v2)

All tracks accurately ripped

End of status report

==== Log checksum AA65ECFCA987513527146F82AC5740694A9FFB0C4D6A6577DB18D982F9ADA0DD ====

foobar2000 1.2.6 / Dynamic Range Meter 1.1.1
log date: 2015-06-02 14:02:55

------
Analyzed: The Offspring / Greatest Hits
------

DR Peak RMS Duration Track
------
DR5 -0.10 dB -6.83 dB 3:27 01-Can't Repeat
DR6 -0.20 dB -7.43 dB 3:18 02-Come Out And Play
DR6 -0.20 dB -7.20 dB 4:18 03-Self Esteem
DR6 -0.20 dB -7.28 dB 3:52 04-Gotta Get Away
DR6 -0.20 dB -7.19 dB 1:53 05-All I Want
DR7 -0.20 dB -8.00 dB 4:28 06-Gone Away
DR7 -0.31 dB -8.36 dB 3:08 07-Pretty Fly (For A White Guy)
DR7 -0.10 dB -8.76 dB 2:49 08-Why Don't You Get A Job?
DR7 -0.70 dB -8.21 dB 3:00 09-The Kids Aren't Alright
DR6 -0.50 dB -7.68 dB 3:41 10-Original Prankster
DR6 -0.50 dB -7.28 dB 3:22 11-Want You Bad
DR5 -0.10 dB -6.65 dB 3:48 12-Defy You
DR6 0.00 dB -6.63 dB 2:48 13-Hit That
DR5 -0.10 dB -6.68 dB 2:15 14-(Can't Get My) Head Around You
DR5 -0.10 dB -7.03 dB 8:36 15-The Kids Aren't Alright (Remix)
------

Number of tracks: 15
Official DR value: DR6

Samplerate: 44100 Hz
Channels: 2
Bits per sample: 16
Bitrate: 1031 kbps
Codec: FLAC

[CUETools log; Date: 02.06.2015 14:01:38; Version: 2.1.5]
[CTDB TOCID: gwxS.sS3UqPzpyeLLxq5CkySsfE-] found.
Track | CTDB Status
1 | (133/138) Accurately ripped
2 | (135/138) Accurately ripped
3 | (135/138) Accurately ripped
4 | (133/138) Accurately ripped
5 | (134/138) Accurately ripped
6 | (134/138) Accurately ripped
7 | (134/138) Accurately ripped
8 | (134/138) Accurately ripped
9 | (134/138) Accurately ripped
10 | (133/138) Accurately ripped
11 | (134/138) Accurately ripped
12 | (133/138) Accurately ripped
13 | (133/138) Accurately ripped
14 | (133/138) Accurately ripped
15 | (133/138) Accurately ripped
[AccurateRip ID: 001c5770-0140bdf9-ca0cd20f] found.
Track [ CRC | V2 ] Status
01 [2b794d74|de01ca70] (105+100/214) Accurately ripped
02 [8a5adbab|7fd961e4] (104+099/210) Accurately ripped
03 [fc720b3b|e4f33524] (105+099/211) Accurately ripped
04 [74292b62|4e23e9e0] (103+098/208) Accurately ripped
05 [83ce6f41|ff6e5f2c] (103+100/210) Accurately ripped
06 [f199ee5f|c6b2fc56] (103+099/209) Accurately ripped
07 [fc0c5d45|0f599c8d] (102+098/207) Accurately ripped
08 [ec951b34|a7a6c2f0] (103+098/208) Accurately ripped
09 cc09e5a|ca4b046d (103+099/208) Accurately ripped
10 [88308502|9ec59732] (103+097/207) Accurately ripped
11 [78ae2502|75f62fa3] (103+099/208) Accurately ripped
12 [e3cf8c95|357af6c4] (104+100/211) Accurately ripped
13 [f8d06e0d|545e9d0a] (101+100/208) Accurately ripped
14 [1a365840|ae680698] (103+099/209) Accurately ripped
15 [62908a23|20e9ffa1] (100+095/201) Accurately ripped
Offsetted by -686:
01 [55dd0165] (005/214) Accurately ripped
02 55c1a2c (005/210) Accurately ripped
03 [056d8727] (005/211) Accurately ripped
04 [e482f030] (005/208) Accurately ripped
05 6c2f880 (005/210) Accurately ripped
06 [33a2271e] (005/209) Accurately ripped
07 [c5a35d12] (005/207) Accurately ripped
08 c24f91d (005/208) Accurately ripped
09 [ed52e98c] (004/208) Accurately ripped
10 [fff4f6b5] (005/207) Accurately ripped
11 [940fc91a] (004/208) Accurately ripped
12 [5d709e5c] (005/211) Accurately ripped
13 [c6af2788] (005/208) Accurately ripped
14 [edefa347] (005/209) Accurately ripped
15 [7b97fca9] (004/201) Accurately ripped
Offsetted by -1980:
01 [89d6ee37] (000/214) No match (V2 was not tested)
02 4cc3ae3 (000/210) No match (V2 was not tested)
03 [6522eae2] (000/211) No match (V2 was not tested)
04 [d807c1db] (000/208) No match (V2 was not tested)
05 [19c2bae4] (000/210) No match (V2 was not tested)
06 [fe0d3cfc] (000/209) No match (V2 was not tested)
07 [50c89ff0] (000/207) No match (V2 was not tested)
08 [6b620808] (000/208) No match (V2 was not tested)
09 [c5b3067c] (000/208) No match (V2 was not tested)
10 [dfb5e210] (000/207) No match (V2 was not tested)
11 [d5feee34] (000/208) No match (V2 was not tested)
12 [41493d0a] (000/211) No match (V2 was not tested)
13 [1d2e310a] (000/208) No match (V2 was not tested)
14 [f0ee20ca] (000/209) No match (V2 was not tested)
15 [4283d9e0] (000/201) No match (V2 was not tested)
Offsetted by -1313:
01 [f9966cdc] (000/214) No match (V2 was not tested)
02 [502ddf6c] (000/210) No match (V2 was not tested)
03 [13ad0930] (000/211) No match (V2 was not tested)
04 [ad29bc02] (000/208) No match (V2 was not tested)
05 [1802fb7b] (000/210) No match (V2 was not tested)
06 [3007ca76] (000/209) No match (V2 was not tested)
07 [6a970ce8] (000/207) No match (V2 was not tested)
08 [f0a160c2] (000/208) No match (V2 was not tested)
09 [8a1fe479] (000/208) No match (V2 was not tested)
10 [947a13af] (000/207) No match (V2 was not tested)
11 [da13c7e8] (000/208) No match (V2 was not tested)
12 [2c70c056] (000/211) No match (V2 was not tested)
13 [27c01eb7] (000/208) No match (V2 was not tested)
14 [8519165a] (000/209) No match (V2 was not tested)
15 [67df822f] (000/201) No match (V2 was not tested)
Offsetted by -670:
01 [5da0d516] (000/214) No match (V2 was not tested)
02 [04f7c09f] (000/210) No match (V2 was not tested)
03 [0ab54ccc] (000/211) No match (V2 was not tested)
04 [0f7884d3] (000/208) No match (V2 was not tested)
05 [5c7cf9ce] (000/210) No match (V2 was not tested)
06 [20bfa417] (000/209) No match (V2 was not tested)
07 [49d8ebf4] (000/207) No match (V2 was not tested)
08 [e5fcbd4c] (000/208) No match (V2 was not tested)
09 [588d1978] (000/208) No match (V2 was not tested)
10 [278026b4] (000/207) No match (V2 was not tested)
11 [9cd41cd2] (000/208) No match (V2 was not tested)
12 [58017431] (000/211) No match (V2 was not tested)
13 [5ba66458] (000/208) No match (V2 was not tested)
14 [21d738d1] (000/209) No match (V2 was not tested)
15 [78d80378] (000/201) No match (V2 was not tested)
Offsetted by -664:
01 [c1542cdd] (002/214) Accurately ripped
02 [ebee7bc1] (000/210) No match
03 [cb24f3cd] (000/211) No match
04 [9dfa7d6a] (000/208) No match
05 [c851b2b7] (000/210) No match
06 [6059125b] (000/209) No match
07 [e391f253] (000/207) No match
08 [e0e11d5b] (000/208) No match
09 [ecd845fa] (000/208) No match
10 [c26fd88c] (000/207) No match
11 [0286fbb3] (000/208) No match
12 [d4288319] (000/211) No match
13 [8828d7e7] (000/208) No match
14 [7c54e21f] (000/209) No match
15 [f7ecc605] (000/201) No match
Offsetted by -18:
01 [97f6dec7] (000/214) No match (V2 was not tested)
02 [c26f8776] (000/210) No match (V2 was not tested)
03 [a38a5b64] (000/211) No match (V2 was not tested)
04 [8057a530] (000/208) No match (V2 was not tested)
05 [c7c9863b] (000/210) No match (V2 was not tested)
06 [3120377b] (000/209) No match (V2 was not tested)
07 [308be1ea] (000/207) No match (V2 was not tested)
08 [8b79b954] (000/208) No match (V2 was not tested)
09 [3461ff67] (000/208) No match (V2 was not tested)
10 [ebfa042f] (000/207) No match (V2 was not tested)
11 [997daa36] (000/208) No match (V2 was not tested)
12 [225e0580] (000/211) No match (V2 was not tested)
13 [4f314b64] (000/208) No match (V2 was not tested)
14 [e2a6a93d] (000/209) No match (V2 was not tested)
15 [933fd3d6] (000/201) No match (V2 was not tested)

Track Peak [ CRC32 ] [W/O NULL] [ LOG ]
-- 100,0 [C1472AEA] [D253D094] CRC32
01 98,8 67752D9 [8EAB9DE6]
02 97,7 [C2ECB773] [246526A6]
03 97,7 D1F83FC [1C49C510]
04 97,7 [26E43464] [6C3264C2]
05 97,7 [8FEC8293] [5045B743]
06 97,7 [D690C575] [A320EB09]
07 96,5 A81EF68 [AD75445D]
08 98,8 [4FB7FE65] [08AA1A39]
09 92,2 [AE5B83E9] [8C12E9E8]
10 94,4 [7C7D3BF4] [22F7DDF2]
11 94,4 [F50FD926] [DE0F1200]
12 98,8 [ACEA7159] [DC2C6F7D]
13 100,0 [CFC1759D] [178FCF43]
14 98,8 [7EB5FCC5] [AE3F75E8]
15 98,8 [A3E39445] [ADF7A558]

General
Complete name : I:\VIDEO_TS\VTS_01_0.VOB
Format
: MPEG-PS
File size
: 118 MiB
Duration
: 30s 40ms
Overall bit rate mode : Variable
Overall bit rate : 33.0 Mbps

Video
ID : 224 (0xE0)
Format
: MPEG Video
Format version : Version 2
Format profile : [email protected]
Format settings, BVOP : Yes
Format settings, Matrix : Custom
Format settings, GOP : M=3, N=12
Format settings, picture structure : Frame
Duration
: 30s 40ms
Bit rate mode : Variable
Bit rate
: 30.8 Mbps
Maximum bit rate : 8 264 Kbps
Width
: 720 pixels
Height
: 576 pixels
Display aspect ratio : 4:3
Frame rate
: 25.000 fps
Standard
: PAL
Color space
: YUV
Chroma subsampling

: 4:2:0
Bit depth
: 8 bits
Scan type
: Interlaced
Scan order
: Top Field First
Compression mode : Lossy
Bits/(Pixel*Frame)

: 2.968
Time code of first frame : 01:00:10:07
Time code source : Group of pictures header
GOP, Open/Closed : Closed
Stream size
: 110 MiB (93%)

Audio
ID : 189 (0xBD)-160 (0xA0)
Format
: PCM
Format settings, Endianness : Big
Format settings, Sign : Signed
Muxing mode
: DVD-Video
Duration
: 29s 995ms
Bit rate mode : Constant
Bit rate
: 1 536 Kbps
Channel(s)
: 2 channels
Sampling rate : 48.0 KHz
Bit depth
: 16 bits
Stream size
: 5.49 MiB (5%)

Text
ID : 189 (0xBD)-32 (0x20)
Format
: RLE
Format/Info
: Run-length encoding
Muxing mode
: DVD-Video

Menu

General
Complete name : I:\VIDEO_TS\VTS_01_1.VOB
Format
: MPEG-PS
File size
: 688 MiB
Duration
: 46mn 40s
Overall bit rate mode : Variable
Overall bit rate : 2 061 Kbps

Video
ID : 224 (0xE0)
Format
: MPEG Video
Format version : Version 2
Format profile : [email protected]
Format settings, BVOP : No
Format settings, Matrix : Custom
Duration
: 46mn 39s
Bit rate mode : Variable
Bit rate
: 36.1 Kbps
Maximum bit rate : 8 000 Kbps
Width
: 720 pixels
Height
: 576 pixels
Display aspect ratio : 4:3
Frame rate
: 25.000 fps
Standard
: PAL
Color space
: YUV
Chroma subsampling

: 4:2:0
Bit depth
: 8 bits
Scan type
: Progressive
Scan order
: Top Field First
Compression mode : Lossy
Bits/(Pixel*Frame)

: 0.003
Time code of first frame : 00:00:00:00
Time code source : Group of pictures header
Stream size
: 12.0 MiB (2%)
Color primaries : BT.601 PAL
Transfer characteristics : BT.470 System B, BT.470 System G
Matrix coefficients

: BT.601

Audio #1
ID : 189 (0xBD)-129 (0x81)
Format
: AC-3
Format/Info
: Audio Coding 3
Mode extension : CM (complete main)
Format settings, Endianness : Big
Muxing mode
: DVD-Video
Duration
: 46mn 40s
Bit rate mode : Constant
Bit rate
: 448 Kbps
Channel(s)
: 6 channels
Channel positions: Front: L C R, Side: L R, LFE
Sampling rate : 48.0 KHz
Bit depth
: 16 bits
Compression mode : Lossy
Stream size
: 150 MiB (22%)

Audio #2
ID : 189 (0xBD)-160 (0xA0)
Format
: PCM
Format settings, Endianness : Big
Format settings, Sign : Signed
Muxing mode
: DVD-Video
Duration
: 46mn 40s
Bit rate mode : Constant
Bit rate
: 1 536 Kbps
Channel(s)
: 2 channels
Sampling rate : 48.0 KHz
Bit depth
: 16 bits
Stream size
: 513 MiB (75%)

Text
ID : 189 (0xBD)-32 (0x20)
Format
: RLE
Format/Info
: Run-length encoding
Muxing mode
: DVD-Video

General
Complete name : I:\VIDEO_TS\VTS_02_1.VOB
Format
: MPEG-PS
File size
: 1 024 MiB
Duration
: 18mn 29s
Overall bit rate mode : Variable
Overall bit rate : 7 741 Kbps

Video
ID : 224 (0xE0)
Format
: MPEG Video
Format version : Version 2
Format profile : [email protected]
Format settings, BVOP : Yes
Format settings, Matrix : Custom
Format settings, GOP : M=3, N=15
Format settings, picture structure : Frame
Duration
: 18mn 29s
Bit rate mode : Variable
Bit rate
: 6 051 Kbps
Maximum bit rate : 8 000 Kbps
Width
: 720 pixels
Height
: 576 pixels
Display aspect ratio : 4:3
Frame rate
: 25.000 fps
Standard
: PAL
Color space
: YUV
Chroma subsampling

: 4:2:0
Bit depth
: 8 bits
Scan type
: Interlaced
Scan order
: Top Field First
Compression mode : Lossy
Bits/(Pixel*Frame)

: 0.584
Time code of first frame : 00:59:59:04
Time code source : Group of pictures header
GOP, Open/Closed : Closed
Stream size
: 800 MiB (78%)

Audio
ID : 189 (0xBD)-160 (0xA0)
Format
: PCM
Format settings, Endianness : Big
Format settings, Sign : Signed
Muxing mode
: DVD-Video
Duration
: 18mn 29s
Bit rate mode : Constant
Bit rate
: 1 536 Kbps
Channel(s)
: 2 channels
Sampling rate : 48.0 KHz
Bit depth
: 16 bits
Stream size
: 203 MiB (20%)

Menu

General
Complete name : I:\VIDEO_TS\VTS_02_2.VOB
Format
: MPEG-PS
File size
: 462 MiB
Duration
: 7mn 55s
Overall bit rate mode : Variable
Overall bit rate : 8 162 Kbps

Video
ID : 224 (0xE0)
Format
: MPEG Video
Format version : Version 2
Format profile : [email protected]
Format settings, BVOP : Yes
Format settings, Matrix : Custom
Format settings, GOP : M=3, N=15
Format settings, picture structure : Frame
Duration
: 7mn 54s
Bit rate mode : Variable
Bit rate
: 6 464 Kbps
Maximum bit rate : 8 000 Kbps
Width
: 720 pixels
Height
: 576 pixels
Display aspect ratio : 4:3
Frame rate
: 25.000 fps
Standard
: PAL
Color space
: YUV
Chroma subsampling

: 4:2:0
Bit depth
: 8 bits
Scan type
: Interlaced
Scan order
: Top Field First
Compression mode : Lossy
Bits/(Pixel*Frame)

: 0.623
Time code of first frame : 01:18:29:04
Time code source : Group of pictures header
GOP, Open/Closed : Closed
Stream size
: 366 MiB (79%)

Audio
ID : 189 (0xBD)-160 (0xA0)
Format
: PCM
Format settings, Endianness : Big
Format settings, Sign : Signed
Muxing mode
: DVD-Video
Duration
: 7mn 55s
Bit rate mode : Constant
Bit rate
: 1 536 Kbps
Channel(s)
: 2 channels
Sampling rate : 48.0 KHz
Bit depth
: 16 bits
Delay relative to video : -852ms
Stream size
: 87.0 MiB (19%)

http://i70.fastpic.ru/big/2015/0604/e8/3853b7a5ce0404e15555d5555794e4e8.jpg

http://i71.fastpic.ru/big/2015/0604/64/a283a8b895137c4c0f4f9dbc7e5b4d64.jpg

http://i70.fastpic.ru/big/2015/0604/33/d2432bf5ef671decdff394645b12fe33.jpg

http://i70.fastpic.ru/big/2015/0604/7a/68a55531f4b17ca0514996b879462d7a.jpg

http://i69.fastpic.ru/big/2015/0604/a7/843eb5efdb1b7e9f2aee34d7256bafa7.jpg

http://i69.fastpic.ru/big/2015/0604/57/21c8fb5587d23b87510f521a1250a457.jpg

http://i72.fastpic.ru/big/2015/0604/a4/863e5f140da1b85a5c9bfefeb04df4a4.jpg

http://i69.fastpic.ru/big/2015/0604/29/bc35151b1789917ebd168e4e28c47a29.jpg



DOWNLOAD LINKS:
Buy Premium To Support Me & Get Resumable Support & Max Speed


Links are Interchangeable - No Password - Single Extraction

 
 
 
Dear visitor, you went to the site as an unregistered user. We encourage you to register or enter the site under your name.
 
   
 
 (Votes #: 0)