2013Zone For Latest Downloads

 
     
 
Legal Downloads » Music » Druid - Toward The Sun (1975) + Fluid Druid (1976) [2015, SHM-CD, Warner Music Japan Reissue, WPCR-16339/16340]
Menu
Home Applications
Games Movies
Music TV Shows
Torrents Graphics

Sitemap

RSS
 
Advanced Search
Last News
Site Info
Top Contributors:
  1    supper88 32766
  2    admin 32671
  3    Whisky 10080
  4    Shark_ 8911
  5    creativelivenew 8706
  6    whathesupa 2799
  7    candymypost 840
  8    hvnteam 629
  9    vuong87 3


Articles:
  This Hour: 0
  Today: 0
  This Month: 20
  All Time: 515636


Torrents:
  Today: 0
  Yesterday: 0
  All Time: 156702


Membership:
  Registered Today :0
  This Hour:0
  This Month:0
  Total:14
  Banned:1

{online}
{inform_torrent}
Friend:
We Recomend
Trend
Trend

Search In Site

Music : Druid - Toward The Sun (1975) + Fluid Druid (1976) [2015, SHM-CD, Warner Music Japan Reissue, WPCR-16339/16340]
 
http://i69.fastpic.ru/big/2015/0604/98/549f4fe6809d83587edd1fa5d685f198.jpg

Druid - Toward The Sun (1975) + Fluid Druid (1976) [2015]
EAC Rip | FLAC (Img) + Cue + Log ~ 497 Mb | MP3 CBR320 ~ 210 Mb
Scans (JPG, 600 dpi) ~ 122 Mb | RAR 5% Recovery
Progressive Rock, Symphonic Prog | Warner Music Japan #WPCR-16339/16340

"Formed in 1971 by old schoolmates Dane Stevens and Cedric Sharpley, along with local bass player Neil Brewer, Druid spent years playing clubs as a trio before winning a competition by Melody Maker for the best unsigned band. At this point they added Andrew McCrorie-Shand, a recent London College of Music graduate. The Melody Maker prize included new instruments and a recording contract, and their debut album appeared in July 1975 among envious whispers by rival bands and music publications. The band had a difficult time shaking the charge of hype, and they were also charged in some quarters as being Yes soundalikes -- Starcastle in the U.S. was later to be tarred with the same brush. (In fact, Druid was an opening act at a number of Yes concerts.) The Yes comparison, though an obvious one, is not entirely accurate..."

Wiki | Discogs | All Music | Prog Archives
***************

http://i72.fastpic.ru/big/2015/0604/eb/00b4a7f83345775ecbebf4a23062d8eb.jpg

Druid - Toward The Sun (1975/2015)
EAC Rip | FLAC (Img) + Cue + Log ~ 298 Mb | MP3 CBR320 ~ 114 Mb
Scans (JPG, 600 dpi) ~ 69 Mb | RAR 5% Recovery
Progressive Rock, Symphonic Prog | Warner Music Japan #WPCR-16339

"Although it's not on the same level as the best progressive bands -- the drums and keyboards are not really up to the challenge presented by the guitars -- this album has been rather unfairly written off by some music critics. Their debut begins with their strongest composition: "Voices," whose multiple movements, chorus lyrics of "a million voices singing," broad washes of mellotron, and alternating guitar tones make it sound like an outtake from Yes's "The Ancient." The instrumental "Theme" has some fine jazz-prog sax soloing over a lush backing, and "Dawn of Evening" has a wonderfully taut bassline march pushed to the front of the mix.
~ Paul Collins, All Music Guide
"


http://i72.fastpic.ru/big/2015/0604/60/1f318489ef0080c3d70f8e58b9972860.jpg

Track List:

01. Voices [08:16]
02. Remembering [05:28]
03. Theme [05:29]
04. Toward The Sun [05:07]
05. Red Carpet For An Autumn [03:11]
06. Dawn Of Evening [10:07]
07. Shangri-La [10:12]

Line-up:
Andrew McCrorie-Shand - keyboards
Dane - guitar, vocals
Neil Brewer - bass
Cedric Sharpley - drums, percussion

Exact Audio Copy V1.0 beta 3 from 29. August 2011

Отчёт EAC об извлечении, выполненном 28. мая 2015, 12:17

DRUID / Toward The Sun

Дисковод: TSSTcorpCDDVDW SH-224DB Adapter: 4 ID: 1

Режим чтения : Достоверность
?спользование точного потока : Да
Отключение кэ?а аудио : Да
?спользование указателей C2 : Нет

Коррекция смещения при чтении : 6
Способность читать области Lead-in и Lead-out : Нет
Заполнение пропущенных сэмплов ти?иной : Да
Удаление блоков с ти?иной в начале и конце : Нет
При вычислениях CRC использовались нулевые сэмплы : Да
?нтерфейс : Встроенный Win32-интерфейс для Win NT/2000

Выходной формат : Внутренние WAV-операции
Формат сэмплов : 44.100 Гц; 16 бит; стерео

TOC извлечённого CD Трек | Старт | Длительность | Начальный сектор | Конечный сектор

1 | 0:00.00 | 8:15.46 | 0 | 37170
2 | 8:15.46 | 5:27.46 | 37171 | 61741
3 | 13:43.17 | 5:28.51 | 61742 | 86392
4 | 19:11.68 | 5:06.39 | 86393 | 109381
5 | 24:18.32 | 3:10.57 | 109382 | 123688
6 | 27:29.14 | 10:06.49 | 123689 | 169187
7 | 37:35.63 | 10:11.27 | 169188 | 215039

Характеристики диапазона извлечения и сообщения об о?ибках

Выбранный диапазон ?мя файла D:\TEMP\DRUID - 1975 - Toward The Sun [2015 Warner Music Japan reissue, SHM-CD WPCR-16339].wav Пиковый уровень 100.0 %
Скорость извлечения 7.0 X
Качество диапазона 100.0 %
CRC теста 5CE1BCD7
CRC копии 5CE1BCD7
Копирование... OK

О?ибок не произо?ло


AccurateRip: сводка

Трек 1 точность не определена (достоверность 2) [194517F7], AccurateRip вернул [1F0DE352] (AR v2)
Трек 2 точность не определена (достоверность 2) [A6D6EEA1], AccurateRip вернул [91CC59E6] (AR v2)
Трек 3 точность не определена (достоверность 2) [64D4E234], AccurateRip вернул [0DC907BE] (AR v2)
Трек 4 точность не определена (достоверность 2) [E54AB887], AccurateRip вернул [F79823D6] (AR v2)
Трек 5 точность не определена (достоверность 2) [40A08CCD], AccurateRip вернул [07B9E88A] (AR v2)
Трек 6 точность не определена (достоверность 2) [C34DC94B], AccurateRip вернул [417A2FA6] (AR v2)
Трек 7 точность не определена (достоверность 2) [7BB64A5A], AccurateRip вернул [6F5AA8D8] (AR v2)

Ни один трек не про?ёл проверки на точность
В ва?ей базе может быть иной вариант ?тамповки диска

Конец отчёта

==== Контрольная сумма отчёта 1E3BE2D724160B93B222DCC395EA0C3D2AFDE043E3669AEA741B44ACF442DEED ====

foobar2000 1.2.6 / Dynamic Range Meter 1.1.1
log date: 2015-06-02 18:30:40

------
Analyzed: DRUID / Toward The Sun
------

DR Peak RMS Duration Track
------
DR10 0.00 dB -12.63 dB 8:16 01-Voices
DR10 0.00 dB -12.36 dB 5:28 02-Remembering
DR10 0.00 dB -11.47 dB 5:29 03-Theme
DR9 0.00 dB -12.65 dB 5:07 04-Toward The Sun
DR12 0.00 dB -16.89 dB 3:11 05-Red Carpet For An Autumn
DR9 0.00 dB -12.98 dB 10:07 06-Dawn Of Evening
DR9 0.00 dB -12.06 dB 10:11 07-Shangri-La
------

Number of tracks: 7
Official DR value: DR10

Samplerate: 44100 Hz
Channels: 2
Bits per sample: 16
Bitrate: 831 kbps
Codec: FLAC

[CUETools log; Date: 02.06.2015 18:30:35; Version: 2.1.5]
[CTDB TOCID: Stwcf15GFcQVaelSkGTDaRQ3lhU-] found.
Track | CTDB Status
1 | (2/2) Accurately ripped
2 | (2/2) Accurately ripped
3 | (2/2) Accurately ripped
4 | (2/2) Accurately ripped
5 | (2/2) Accurately ripped
6 | (2/2) Accurately ripped
7 | (2/2) Accurately ripped
[AccurateRip ID: 000c3f2d-00493965-570b3307] found.
Track [ CRC | V2 ] Status
01 [0dffcc3c|194517f7] (0+0/2) No match
02 [4577f7ed|a6d6eea1] (0+0/2) No match
03 [909583c2|64d4e234] (0+0/2) No match
04 [f7e4a74e|e54ab887] (0+0/2) No match
05 [e010656c|40a08ccd] (0+0/2) No match
06 [fc2b3245|c34dc94b] (0+0/2) No match
07 [270f7872|7bb64a5a] (0+0/2) No match

Track Peak [ CRC32 ] [W/O NULL] [ LOG ]
-- 100,0 [5CE1BCD7] [5321934D] CRC32
01 100,0 [41701D19] [E62A1F8E]
02 100,0 [55CBE30B] [CD6D1E5E]
03 100,0 [C0397600] [8CE87523]
04 100,0 [E9CE799A] [0E8EF9EA]
05 100,0 [6029D0E9] [E7F61138]
06 100,0 [93D89FCE] [4B9F5ADF]
07 100,0 [D3E95C2C] [037A79EA]

http://i69.fastpic.ru/big/2015/0604/15/331fb6eeab99678a1af758dd527ba515.jpg

***************

http://i72.fastpic.ru/big/2015/0604/28/384beab3a919093b46226a02f80dff28.jpg

Druid - Fluid Druid (1976/2015)
EAC Rip | FLAC (Img) + Cue + Log ~ 198 Mb | MP3 CBR320 ~ 96 Mb
Scans (JPG, 600 dpi) ~ 54 Mb | RAR 5% Recovery
Progressive Rock, Symphonic Prog | Warner Music Japan #WPCR-16340

"Despite the more complex arrangements and varied lyrics of this album, it's somehow not as satisfying as their debut. Songs meant to sound grand simply sound pompous -- a charge often (and tiresomely) leveled at prog bands, but warranted at times here. Similarly, Dane tries hard to shake his Jon Anderson label, but the overenunciated and mannered style that he adopts instead is grating; the result often veers fearfully close to Styx. There are some successful tracks, though -- the pleasant interpolation of a children's choir and carousel organ in "Crusade," the soaring guitar solos on "Painters Clouds," and the pensive woodwinds and piano in the long instrumental intro of the album's high point, "Left to Find."
~ Paul Collins, All Music Guide
"


http://i71.fastpic.ru/big/2015/0604/cf/8f87baf54d4eb70826e8980f57e519cf.jpg

Track List:

01. Razor Truth [05:44]
02. Painters Clouds [05:01]
03. FM 145 [02:10]
04. Crusade [07:52]
05. Nothing But Morning [04:12]
06. Barnaby [03:17]
07. Kestrel [03:39]
08. Left To Find [07:18]
09. The Fisherman's Friend [00:47]

Line-up:
Andrew McCrorie-Shand - keyboards
Dane - guitar, vocals
Neil Brewer - bass
Cedric Sharpley - drums, percussion

Exact Audio Copy V1.0 beta 3 from 29. August 2011

Отчёт EAC об извлечении, выполненном 28. мая 2015, 13:32

DRUID / Fluid Druid

Дисковод: TSSTcorpCDDVDW SH-224DB Adapter: 4 ID: 1

Режим чтения : Достоверность
?спользование точного потока : Да
Отключение кэ?а аудио : Да
?спользование указателей C2 : Нет

Коррекция смещения при чтении : 6
Способность читать области Lead-in и Lead-out : Нет
Заполнение пропущенных сэмплов ти?иной : Да
Удаление блоков с ти?иной в начале и конце : Нет
При вычислениях CRC использовались нулевые сэмплы : Да
?нтерфейс : Встроенный Win32-интерфейс для Win NT/2000

Выходной формат : Внутренние WAV-операции
Формат сэмплов : 44.100 Гц; 16 бит; стерео

TOC извлечённого CD Трек | Старт | Длительность | Начальный сектор | Конечный сектор

1 | 0:00.00 | 5:43.40 | 0 | 25764
2 | 5:43.40 | 5:00.05 | 25765 | 48269
3 | 10:43.45 | 2:09.30 | 48270 | 57974
4 | 12:53.00 | 7:51.05 | 57975 | 93304
5 | 20:44.05 | 4:11.62 | 93305 | 112191
6 | 24:55.67 | 3:16.08 | 112192 | 126899
7 | 28:12.00 | 3:38.55 | 126900 | 143304
8 | 31:50.55 | 7:17.72 | 143305 | 176151
9 | 39:08.52 | 0:46.58 | 176152 | 179659

Характеристики диапазона извлечения и сообщения об о?ибках

Выбранный диапазон ?мя файла D:\TEMP\DRUID - 1976 - Fluid Druid [2015 Warner Music Japan reissue, SHM-CD WPCR-16340].wav Пиковый уровень 100.0 %
Скорость извлечения 6.7 X
Качество диапазона 100.0 %
CRC теста 0230A44A
CRC копии 0230A44A
Копирование... OK

О?ибок не произо?ло


AccurateRip: сводка

Трек 1 точность не определена (достоверность 3) [135FA719], AccurateRip вернул [6CB03EF0] (AR v2)
Трек 2 точность не определена (достоверность 3) [7BE455D3], AccurateRip вернул [749C704C] (AR v2)
Трек 3 точность не определена (достоверность 3) [54EDE21D], AccurateRip вернул [3DE957A9] (AR v2)
Трек 4 точность не определена (достоверность 3) [6109E12F], AccurateRip вернул [EBECCF8C] (AR v2)
Трек 5 точность не определена (достоверность 3) [E80212CA], AccurateRip вернул [AD565ED5] (AR v2)
Трек 6 точность не определена (достоверность 3) [4DAC4446], AccurateRip вернул A53A65E (AR v2)
Трек 7 точность не определена (достоверность 3) [40F93D09], AccurateRip вернул [6BB64320] (AR v2)
Трек 8 точность не определена (достоверность 3) [472549C9], AccurateRip вернул [EE782A2B] (AR v2)
Трек 9 точность не определена (достоверность 3) [9F7BCB1D], AccurateRip вернул [3CFA696D] (AR v2)

Ни один трек не про?ёл проверки на точность
В ва?ей базе может быть иной вариант ?тамповки диска

Конец отчёта

==== Контрольная сумма отчёта 2C3F111FFA72117241FAAF77B221439A13CBCB26AAE90802AF849CD2FCD808D7 ====

foobar2000 1.2.6 / Dynamic Range Meter 1.1.1
log date: 2015-06-02 18:31:11

------
Analyzed: DRUID / Fluid Druid
------

DR Peak RMS Duration Track
------
DR13 0.00 dB -17.52 dB 5:44 01-Razor Truth
DR12 0.00 dB -14.49 dB 5:00 02-Painters Clouds
DR12 0.00 dB -14.83 dB 2:09 03-FM 145
DR11 0.00 dB -15.01 dB 7:51 04-Crusade
DR11 0.00 dB -14.25 dB 4:12 05-Nothing But Morning
DR15 0.00 dB -19.17 dB 3:16 06-Barnaby
DR14 0.00 dB -18.22 dB 3:39 07-Kestrel
DR11 0.00 dB -16.21 dB 7:18 08-Left To Find
DR13 -0.94 dB -17.17 dB 0:47 09-The Fisherman's Friend
------

Number of tracks: 9
Official DR value: DR12

Samplerate: 44100 Hz
Channels: 2
Bits per sample: 16
Bitrate: 663 kbps
Codec: FLAC

[CUETools log; Date: 02.06.2015 18:31:07; Version: 2.1.5]
[CTDB TOCID: UeGBwnml6FvfsRjBwAVZP6Kt2iY-] found.
Track | CTDB Status
1 | (1/1) Accurately ripped
2 | (1/1) Accurately ripped
3 | (1/1) Accurately ripped
4 | (1/1) Accurately ripped
5 | (1/1) Accurately ripped
6 | (1/1) Accurately ripped
7 | (1/1) Accurately ripped
8 | (1/1) Accurately ripped
9 | (1/1) Accurately ripped
[AccurateRip ID: 000eb3c4-006a93b2-7d095b09] found.
Track [ CRC | V2 ] Status
01 [8cd84e60|135fa719] (0+0/3) No match
02 [daab3207|7be455d3] (0+0/3) No match
03 [172f9ebe|54ede21d] (0+0/3) No match
04 [7a225691|6109e12f] (0+0/3) No match
05 [a80b34d4|e80212ca] (0+0/3) No match
06 [e0ebcb92|4dac4446] (0+0/3) No match
07 [5959d1a8|40f93d09] (0+0/3) No match
08 [7e1397ae|472549c9] (0+0/3) No match
09 [a747140a|9f7bcb1d] (0+0/3) No match

Track Peak [ CRC32 ] [W/O NULL] [ LOG ]
-- 100,0 [0230A44A] [FF2144C3] CRC32
01 100,0 [CE9DF8B1] [FC9B314C]
02 100,0 [6B69815C] [D84EB4B7]
03 100,0 [FCC31631] [E4A9169B]
04 100,0 A829306 [0F660CFA]
05 100,0 [AB4155B7] [FBFA14F4]
06 100,0 [C9F3EC89] [6255FEE6]
07 100,0 [7B932C71] [8D038726]
08 100,0 [E64ECB1E] [3EF26A4E]
09 89,7 [F55DE810] [97D73D06]

http://i69.fastpic.ru/big/2015/0604/f9/24a33599f5cf0466a57bf3dbeccaa8f9.jpg


DOWNLOAD LINKS:
Buy Premium To Support Me & Get Resumable Support & Max Speed


Links are Interchangeable - No Password - Single Extraction

 
 
 
Dear visitor, you went to the site as an unregistered user. We encourage you to register or enter the site under your name.
 
   
 
 (Votes #: 0)