2013Zone For Latest Downloads

 
     
 
Legal Downloads » TV Shows » BBC - Rome's Invisible City (2015)
Menu
Home Applications
Games Movies
Music TV Shows
Torrents Graphics

Sitemap

RSS
 
Advanced Search
Last News
Site Info
Top Contributors:
  1    supper88 32766
  2    admin 32671
  3    Whisky 10080
  4    Shark_ 8911
  5    creativelivenew 8706
  6    whathesupa 2799
  7    candymypost 840
  8    hvnteam 629
  9    vuong87 3


Articles:
  This Hour: 0
  Today: 0
  This Month: 40
  All Time: 515636


Torrents:
  Today: 0
  Yesterday: 0
  All Time: 156702


Membership:
  Registered Today :0
  This Hour:0
  This Month:0
  Total:14
  Banned:1

{online}
{inform_torrent}
Friend:
We Recomend
Trend
Trend

Search In Site

TV Shows : BBC - Rome's Invisible City (2015)
 

http://i72.fastpic.ru/big/2015/0604/e9/8e1b937d4cd5b3cad3bac53ab7c198e9.jpg
BBC - Rome's Invisible City (2015)
HDTV | 1280x720 | .MP4/AVC @ 3005 Kbps | 58mn 59s | Audio: English AAC 160 kbps, 2 channels | Subs: English | 1.31 GiB
Genre: Documentary

"With the help of a team of experts and the latest in 3D scanning technology, Alexander Armstrong, along with Dr Michael Scott, explores the hidden underground treasures that made Rome the powerhouse of the ancient world. In his favourite city, he uncovers a lost subterranean world that helped build and run the world's first metropolis and its empire. From the secret underground world of the Colosseum to the aqueducts and sewers that supplied and cleansed it, and from the mysterious cults that sustained it spiritually to the final resting places of Rome's dead, Xander discovers the underground networks that serviced the remarkable world above."

General
Complete name : BBC.Romes.Invisible.City.mp4
Format
: MPEG-4
Format profile : Base Media
Codec ID
: isom
File size
: 1.31 GiB
Duration
: 58mn 59s
Overall bit rate mode : Variable
Overall bit rate : 3 169 Kbps

Video
ID : 1
Format
: AVC
Format/Info
: Advanced Video Codec
Format profile : [email protected]
Format settings, CABAC : Yes
Format settings, ReFrames : 4 frames
Codec ID
: avc1
Codec ID/Info : Advanced Video Coding
Duration
: 58mn 59s
Bit rate
: 3 005 Kbps
Maximum bit rate : 14.3 Mbps
Width
: 1 280 pixels
Height
: 720 pixels
Display aspect ratio : 16:9
Frame rate mode : Constant
Frame rate
: 25.000 fps
Color space
: YUV
Chroma subsampling

: 4:2:0
Bit depth
: 8 bits
Scan type
: Progressive
Bits/(Pixel*Frame)

: 0.130
Stream size
: 1.24 GiB (95%)
Writing library : x264 core 142 r2479 dd79a61
Encoding settings: cabac=1 / ref=2 / deblock=1:0:0 / analyse=0x3:0x113 / me=hex / subme=6 / psy=1 / psy_rd=1.00:0.00 / mixed_ref=1 / me_range=16 / chroma_me=1 / trellis=1 / 8x8dct=1 / cqm=0 / deadzone=21,11 / fast_pskip=1 / chroma_qp_offset=-2 / threads=3 / lookahead_threads=1 / sliced_threads=0 / nr=0 / decimate=1 / interlaced=0 / bluray_compat=0 / constrained_intra=0 / bframes=3 / b_pyramid=2 / b_adapt=1 / b_bias=0 / direct=1 / weightb=1 / open_gop=0 / weightp=1 / keyint=250 / keyint_min=25 / scenecut=40 / intra_refresh=0 / rc_lookahead=30 / rc=crf / mbtree=1 / crf=19.0 / qcomp=0.60 / qpmin=0 / qpmax=69 / qpstep=4 / vbv_maxrate=62500 / vbv_bufsize=78125 / crf_max=0.0 / nal_hrd=none / filler=0 / ip_ratio=1.40 / aq=1:1.00
Tagged date
: UTC 2015-06-02 14:26:54
Color primaries : BT.709-5, BT.1361, IEC 61966-2-4, SMPTE RP177
Transfer characteristics : BT.709-5, BT.1361
Matrix coefficients

: BT.709-5, BT.1361, IEC 61966-2-4 709, SMPTE RP177

Audio
ID : 2
Format
: AAC
Format/Info
: Advanced Audio Codec
Format profile : LC
Codec ID
: 40
Duration
: 58mn 59s
Bit rate mode : Variable
Bit rate
: 160 Kbps
Maximum bit rate : 184 Kbps
Channel(s)
: 2 channels
Channel positions: Front: L R
Sampling rate : 48.0 KHz
Compression mode : Lossy
Delay relative to video : -12s 0ms
Stream size
: 67.7 MiB (5%)
Language
: English
Encoded date : UTC 2015-06-02 14:26:47
Tagged date
: UTC 2015-06-02 14:26:54

Text
ID : 3
Format
: Timed text
Codec ID
: tx3g
Duration
: 58mn 29s
Bit rate mode : Variable
Bit rate
: 105 bps
Delay relative to video : -12s 0ms
Stream size
: 45.0 KiB (0%)
Encoded date : UTC 2015-06-02 14:26:54
Tagged date
: UTC 2015-06-02 14:26:54

Screenshots:

http://i72.fastpic.ru/big/2015/0604/7d/ae77e3dd888fa011b5d5214d5b36517d.jpg

http://i72.fastpic.ru/big/2015/0604/58/074faa4d0b5c3a93b7f55743efc42f58.jpg

http://i72.fastpic.ru/big/2015/0604/f2/250a8aa3d51de2099376fa1a14e343f2.jpg

http://i71.fastpic.ru/big/2015/0604/e9/590ee2b370ef9ca0625376105b5e82e9.jpg


DOWNLOAD LINKS:
Buy Premium To Support Me & Get Resumable Support & Max Speed


Links are Interchangeable - No Password - Single Extraction

 
 
 
Dear visitor, you went to the site as an unregistered user. We encourage you to register or enter the site under your name.
 
   
 
 (Votes #: 0)