2013Zone For Latest Downloads

 
     
 
Legal Downloads » TV Shows » CNBC - Dishonesty: The Truth About Lies (2015)
Menu
Home Applications
Games Movies
Music TV Shows
Torrents Graphics

Sitemap

RSS
 
Advanced Search
Last News
Site Info
Top Contributors:
  1    supper88 32766
  2    admin 32671
  3    Whisky 10080
  4    Shark_ 8911
  5    creativelivenew 8706
  6    whathesupa 2799
  7    candymypost 840
  8    hvnteam 629
  9    vuong87 3


Articles:
  This Hour: 0
  Today: 0
  This Month: 40
  All Time: 515636


Torrents:
  Today: 0
  Yesterday: 0
  All Time: 156702


Membership:
  Registered Today :0
  This Hour:0
  This Month:0
  Total:14
  Banned:1

{online}
{inform_torrent}
Friend:
We Recomend
Trend
Trend

Search In Site

TV Shows : CNBC - Dishonesty: The Truth About Lies (2015)
 

http://i70.fastpic.ru/big/2015/0604/59/19d07e2c7b4372292b160b215255fa59.jpg
CNBC - Dishonesty: The Truth About Lies (2015)
HDTV | 1280x720 | .MKV/AVC @ 2230 Kbps | 42mn 34s | Audio: English AC3 384 kbps, 6 channels | Subs: None | 812 MiB
Genre: Documentary | Drama

"There are liars and cheaters all around us. From little white lies to extraordinary acts of criminal deceit, this fascinating new CNBC documentary examines this darker side of the human character, and our culture, through first-person accounts from five people who explain with startling candor how their lies lead to disastrous results: a Wall Street trader and a lawyer who run an insider trading scheme that lands them in prison; a disgraced NBA referee, convicted of betting illegally on games; an unhappily married woman in Florida who goes online to cheat on her husband; and a senior manager caught cooking the books at a major corporation. All of them rationalized their behavior and somehow came to believe their acts were justified."

More info

General
Unique ID
: 176389202894617960729978909180557279624 (0x84B35324443E5DF48065DDC4D3404188)
Complete name : dishonesty.the.truth.about.lies.mkv
Format
: Matroska
Format version : Version 4 / Version 2
File size
: 812 MiB
Duration
: 42mn 34s
Overall bit rate : 2 667 Kbps

Video
ID : 1
Format
: AVC
Format/Info
: Advanced Video Codec
Format profile : [email protected]
Format settings, CABAC : Yes
Format settings, ReFrames : 5 frames
Codec ID
: V_MPEG4/ISO/AVC
Duration
: 42mn 34s
Bit rate
: 2 230 Kbps
Width
: 1 280 pixels
Height
: 720 pixels
Display aspect ratio : 16:9
Frame rate
: 23.976 fps
Color space
: YUV
Chroma subsampling

: 4:2:0
Bit depth
: 8 bits
Scan type
: Progressive
Bits/(Pixel*Frame)

: 0.101
Stream size
: 679 MiB (84%)
Writing library : x264 core 146 r2538 121396c
Encoding settings: cabac=1 / ref=5 / deblock=1:0:0 / analyse=0x3:0x113 / me=umh / subme=8 / psy=1 / psy_rd=1.00:0.00 / mixed_ref=1 / me_range=16 / chroma_me=1 / trellis=1 / 8x8dct=1 / cqm=0 / deadzone=21,11 / fast_pskip=1 / chroma_qp_offset=-2 / threads=12 / lookahead_threads=2 / sliced_threads=0 / nr=0 / decimate=1 / interlaced=0 / bluray_compat=0 / constrained_intra=0 / bframes=3 / b_pyramid=2 / b_adapt=2 / b_bias=0 / direct=3 / weightb=1 / open_gop=0 / weightp=2 / keyint=250 / keyint_min=25 / scenecut=40 / intra_refresh=0 / rc_lookahead=50 / rc=crf / mbtree=1 / crf=20.0 / qcomp=0.60 / qpmin=0 / qpmax=69 / qpstep=4 / ip_ratio=1.40 / aq=1:1.00
Language
: English
Default
: Yes
Forced
: No

Audio
ID : 2
Format
: AC-3
Format/Info
: Audio Coding 3
Mode extension : CM (complete main)
Format settings, Endianness : Big
Codec ID
: A_AC3
Duration
: 42mn 34s
Bit rate mode : Constant
Bit rate
: 384 Kbps
Channel(s)
: 6 channels
Channel positions: Front: L C R, Side: L R, LFE
Sampling rate : 48.0 KHz
Bit depth
: 16 bits
Compression mode : Lossy
Stream size
: 117 MiB (14%)
Language
: English
Default
: Yes
Forced
: No

Text
ID : 3
Format
: UTF-8
Codec ID
: S_TEXT/UTF8
Codec ID/Info : UTF-8 Plain Text
Language
: English
Default
: No
Forced
: No

Screenshots:

http://i69.fastpic.ru/big/2015/0604/3b/c8f6838475c5d62e42537a7df7a5c73b.jpg

http://i69.fastpic.ru/big/2015/0604/3e/8d3a0a8a656d6e60bb91020fb191973e.jpg

http://i70.fastpic.ru/big/2015/0604/96/0cfb2d6d74b926db5621ff41f6e24896.jpg


DOWNLOAD LINKS:
Buy Premium To Support Me & Get Resumable Support & Max Speed


Links are Interchangeable - No Password - Single Extraction

 
 
 
Dear visitor, you went to the site as an unregistered user. We encourage you to register or enter the site under your name.
 
   
 
 (Votes #: 0)