2013Zone For Latest Downloads

 
     
 
Legal Downloads » Music » Michael Jackson - HIStory (1995) [2CD] {2009 Japan Cardboard Sleeve Mini LP Reissue}
Menu
Home Applications
Games Movies
Music TV Shows
Torrents Graphics

Sitemap

RSS
 
Advanced Search
Last News
Site Info
Top Contributors:
  1    supper88 32766
  2    admin 32671
  3    Whisky 10080
  4    Shark_ 8911
  5    creativelivenew 8706
  6    whathesupa 2799
  7    candymypost 840
  8    hvnteam 629
  9    vuong87 3


Articles:
  This Hour: 0
  Today: 0
  This Month: 59
  All Time: 515636


Torrents:
  Today: 0
  Yesterday: 0
  All Time: 156702


Membership:
  Registered Today :0
  This Hour:0
  This Month:0
  Total:14
  Banned:1

{online}
{inform_torrent}
Friend:
We Recomend
Trend
Trend

Search In Site

Music : Michael Jackson - HIStory (1995) [2CD] {2009 Japan Cardboard Sleeve Mini LP Reissue}
 

http://i70.fastpic.ru/big/2015/0604/b6/8837b28cd76206580680611d5138eeb6.jpg
Michael Jackson - HIStory (1995) [2CD] {2009 Japan Cardboard Sleeve Mini LP Reissue}
EAC rip (secure mode) | FLAC (tracks)+CUE+LOG -> 1.02 Gb | MP3 @320 -> 357 Mb
Full Artwork @ 300 dpi (jpg) -> 221 Mb | 5% repair rar
© 2009 Epic / Sony Music Japan / MJJ | EICP 1198~9
Pop / Soul / R'n'B / Dance Pop / Quiet Storm

"Michael Jackson's double-disc HIStory: Past, Present, and Future, Book I is a monumental achievement of ego. Titled "HIStory Begins," the first disc is a collection of his post-Motown hits, featuring some of the greatest music in pop history, including "Billie Jean," "Don't Stop 'Til You Get Enough," "Beat It," and "Rock with You." It leaves some hits out - including the number ones "Say Say Say" and "Dirty Diana" - yet it's filled with enough prime material to be thoroughly intoxicating. That can't be said for the second disc, called "HIStory Continues" and consisting entirely of new material - which also happens to be the first material he released since being accused of child molestation. "HIStory Continues" is easily the most personal album Jackson has recorded. References to the scandal permeate almost every song, creating a thick atmosphere of paranoia."

http://i72.fastpic.ru/big/2015/0604/e3/21d980021e6f57667904ad8ea5a03de3.jpg

"If Jackson's music had been the equal of Thriller or Bad, the nervous, vindictive lyrics wouldn't have been quite as overbearing. However, "HIStory Continues" reiterates musical ideas Jackson had been exploring since Bad. Jackson certainly tries to stay contemporary, yet he has a tendency to smooth out all of his rougher musical edges with show-biz schmaltz. Occasionally, Jackson produces some well-crafted pop that ranks with his best material: R. Kelly's "You Are Not Alone" is seductive, "Scream" improves on the slamming beats of his earlier single "Jam," and "Stranger in Moscow" is one of his most haunting ballads. Nevertheless, "HIStory Continues" stands as his weakest album since the mid-'70s."


http://i71.fastpic.ru/big/2015/0604/ef/a298e141df0f8d69d3031d754e830fef.jpg


tracklist:
Disc 1 - HIStory Begins:

01. Billie Jean 4:53
02. The Way You Make Me Feel 4:57
03. Black Or White 4:16
04. Rock With You 3:40
05. She's Out Of My Life 3:38
06. Bad 4:07
07. I Just Can't Stop Loving You 4:12
08. Man In The Mirror 5:19
09. Thriller 5:57
10. Beat It 4:18
11. The Girl Is Mine 3:42
12. Remember The Time 3:59
13. Don't Stop 'Til You Get Enough 6:05
14. Wanna Be Startin' Somethin' 6:04
15. Heal The World 6:26

Disc 2 - HIStory Continues:
01. Scream (Duet with Janet Jackson) 4:38
02. They Don't Care About Us 4:44
03. Stranger In Moscow 5:44
04. This Time Around 4:20
05. Earth Song 6:46
06. D.S. 4:49
07. Money 4:41
08. Come Together 4:02
09. You Are Not Alone 5:45
10. Childhood (Theme From 'Free Willy 2') 4:27
11. Tabloid Junkie 4:32
12. 2 Bad 4:49
13. HIStory 6:37
14. Little Susie 6:13
15. Smile 4:56

Exact Audio Copy V0.99 prebeta 5 from 4. May 2009

EAC extraction logfile from 21. July 2009, 17:00

Michael Jackson / HIStory (2009 Japan Mini LP) (Disc 1)

Used drive : DVDRW IDE 16X Adapter: 1 ID: 1

Read mode : Secure
Utilize accurate stream : Yes
Defeat audio cache : Yes
Make use of C2 pointers : No

Read offset correction

: 12
Overread into Lead-In and Lead-Out : No
Fill up missing offset samples with silence : Yes
Delete leading and trailing silent blocks : No
Null samples used in CRC calculations : Yes
Used interface
: Native Win32 interface for Win NT & 2000
Gap handling
: Appended to previous track

Used output format : User Defined Encoder
Selected bitrate : 320 kBit/s
Quality : High
Add ID3 tag : No
Command line compressor : C:\Program Files\FLAC\flac.exe
Additional command line options : -8 -V -T "ARTIST=%a" -T "TITLE=%t" -T "ALBUM=%g" -T "DATE=%y" -T "TRACKNUMBER=%n" -T "GENRE=%m" -T "COMMENT=EAC FLAC 1.2.1 -8" %s

TOC of the extracted CD Track | Start | Length | Start sector | End sector
1 | 0:00.00 | 4:53.43 | 0 | 22017 2 | 4:53.43 | 4:57.31 | 22018 | 44323 3 | 9:50.74 | 4:16.10 | 44324 | 63533 4 | 14:07.09 | 3:40.44 | 63534 | 80077 5 | 17:47.53 | 3:38.22 | 80078 | 96449 6 | 21:26.00 | 4:07.13 | 96450 | 114987 7 | 25:33.13 | 4:12.16 | 114988 | 133903 8 | 29:45.29 | 5:19.40 | 133904 | 157868 9 | 35:04.69 | 5:57.56 | 157869 | 184699
10 | 41:02.50 | 4:18.72 | 184700 | 204121
11 | 45:21.47 | 3:42.01 | 204122 | 220772
12 | 49:03.48 | 3:59.67 | 220773 | 238764
13 | 53:03.40 | 6:05.03 | 238765 | 266142
14 | 59:08.43 | 6:04.02 | 266143 | 293444
15 | 65:12.45 | 6:26.19 | 293445 | 322413

Track 1 Filename D:\Michael Jackson - HIStory - Past, Present And Future - Book I (1995) [FLAC] (2-CD) (2009 Japan Cardboard Sleeve Mini LP Reissue) (Ltd. Release)\Disc 1 - HIStory Begins\01 - Billie Jean.wav Pre-gap length 0:00:02.00 Peak level 100.0 %
Track quality 100.0 %
Test CRC 5AAA8E85
Copy CRC 5AAA8E85
Track not present in AccurateRip database
Copy OK

Track 2 Filename D:\Michael Jackson - HIStory - Past, Present And Future - Book I (1995) [FLAC] (2-CD) (2009 Japan Cardboard Sleeve Mini LP Reissue) (Ltd. Release)\Disc 1 - HIStory Begins\02 - The Way You Make Me Feel.wav Peak level 100.0 %
Track quality 100.0 %
Test CRC EDF16005
Copy CRC EDF16005
Track not present in AccurateRip database
Copy OK

Track 3 Filename D:\Michael Jackson - HIStory - Past, Present And Future - Book I (1995) [FLAC] (2-CD) (2009 Japan Cardboard Sleeve Mini LP Reissue) (Ltd. Release)\Disc 1 - HIStory Begins\03 - Black Or White.wav Peak level 100.0 %
Track quality 100.0 %
Test CRC 25785E02
Copy CRC 25785E02
Track not present in AccurateRip database
Copy OK

Track 4 Filename D:\Michael Jackson - HIStory - Past, Present And Future - Book I (1995) [FLAC] (2-CD) (2009 Japan Cardboard Sleeve Mini LP Reissue) (Ltd. Release)\Disc 1 - HIStory Begins\04 - Rock With You.wav Peak level 100.0 %
Track quality 100.0 %
Test CRC F14B602F
Copy CRC F14B602F
Track not present in AccurateRip database
Copy OK

Track 5 Filename D:\Michael Jackson - HIStory - Past, Present And Future - Book I (1995) [FLAC] (2-CD) (2009 Japan Cardboard Sleeve Mini LP Reissue) (Ltd. Release)\Disc 1 - HIStory Begins\05 - She's Out Of My Life.wav Peak level 100.0 %
Track quality 100.0 %
Test CRC E5495A62
Copy CRC E5495A62
Track not present in AccurateRip database
Copy OK

Track 6 Filename D:\Michael Jackson - HIStory - Past, Present And Future - Book I (1995) [FLAC] (2-CD) (2009 Japan Cardboard Sleeve Mini LP Reissue) (Ltd. Release)\Disc 1 - HIStory Begins\06 - Bad.wav Pre-gap length 0:00:00.51 Peak level 100.0 %
Track quality 100.0 %
Test CRC B893B0EC
Copy CRC B893B0EC
Track not present in AccurateRip database
Copy OK

Track 7 Filename D:\Michael Jackson - HIStory - Past, Present And Future - Book I (1995) [FLAC] (2-CD) (2009 Japan Cardboard Sleeve Mini LP Reissue) (Ltd. Release)\Disc 1 - HIStory Begins\07 - I Just Can't Stop Loving You.wav Peak level 100.0 %
Track quality 100.0 %
Test CRC CF2FB6A0
Copy CRC CF2FB6A0
Track not present in AccurateRip database
Copy OK

Track 8 Filename D:\Michael Jackson - HIStory - Past, Present And Future - Book I (1995) [FLAC] (2-CD) (2009 Japan Cardboard Sleeve Mini LP Reissue) (Ltd. Release)\Disc 1 - HIStory Begins\08 - Man In The Mirror.wav Peak level 100.0 %
Track quality 100.0 %
Test CRC 16E801BC
Copy CRC 16E801BC
Track not present in AccurateRip database
Copy OK

Track 9 Filename D:\Michael Jackson - HIStory - Past, Present And Future - Book I (1995) [FLAC] (2-CD) (2009 Japan Cardboard Sleeve Mini LP Reissue) (Ltd. Release)\Disc 1 - HIStory Begins\09 - Thriller.wav Peak level 100.0 %
Track quality 100.0 %
Test CRC 47891912
Copy CRC 47891912
Track not present in AccurateRip database
Copy OK

Track 10 Filename D:\Michael Jackson - HIStory - Past, Present And Future - Book I (1995) [FLAC] (2-CD) (2009 Japan Cardboard Sleeve Mini LP Reissue) (Ltd. Release)\Disc 1 - HIStory Begins\10 - Beat It.wav Peak level 100.0 %
Track quality 100.0 %
Test CRC 3A0DFE73
Copy CRC 3A0DFE73
Track not present in AccurateRip database
Copy OK

Track 11 Filename D:\Michael Jackson - HIStory - Past, Present And Future - Book I (1995) [FLAC] (2-CD) (2009 Japan Cardboard Sleeve Mini LP Reissue) (Ltd. Release)\Disc 1 - HIStory Begins\11 - The Girl Is Mine.wav Peak level 100.0 %
Track quality 100.0 %
Test CRC 657A7BF6
Copy CRC 657A7BF6
Track not present in AccurateRip database
Copy OK

Track 12 Filename D:\Michael Jackson - HIStory - Past, Present And Future - Book I (1995) [FLAC] (2-CD) (2009 Japan Cardboard Sleeve Mini LP Reissue) (Ltd. Release)\Disc 1 - HIStory Begins\12 - Remember The Time.wav Peak level 100.0 %
Track quality 100.0 %
Test CRC C908BC95
Copy CRC C908BC95
Track not present in AccurateRip database
Copy OK

Track 13 Filename D:\Michael Jackson - HIStory - Past, Present And Future - Book I (1995) [FLAC] (2-CD) (2009 Japan Cardboard Sleeve Mini LP Reissue) (Ltd. Release)\Disc 1 - HIStory Begins\13 - Don't Stop 'Til You Get Enough.wav Peak level 100.0 %
Track quality 100.0 %
Test CRC 721FFC2C
Copy CRC 721FFC2C
Track not present in AccurateRip database
Copy OK

Track 14 Filename D:\Michael Jackson - HIStory - Past, Present And Future - Book I (1995) [FLAC] (2-CD) (2009 Japan Cardboard Sleeve Mini LP Reissue) (Ltd. Release)\Disc 1 - HIStory Begins\14 - Wanna Be Startin' Somethin'.wav Peak level 100.0 %
Track quality 100.0 %
Test CRC 6F568E5F
Copy CRC 6F568E5F
Track not present in AccurateRip database
Copy OK

Track 15 Filename D:\Michael Jackson - HIStory - Past, Present And Future - Book I (1995) [FLAC] (2-CD) (2009 Japan Cardboard Sleeve Mini LP Reissue) (Ltd. Release)\Disc 1 - HIStory Begins\15 - Heal The World.wav Pre-gap length 0:00:01.37 Peak level 100.0 %
Track quality 100.0 %
Test CRC 416429AB
Copy CRC 416429AB
Track not present in AccurateRip database
Copy OK

None of the tracks are present in the AccurateRip database

No errors occurred

End of status report

Exact Audio Copy V0.99 prebeta 5 from 4. May 2009

EAC extraction logfile from 21. July 2009, 23:29

Michael Jackson / HIStory (2009 Japan Mini LP) (Disc 2)

Used drive : DVDRW IDE 16X Adapter: 1 ID: 1

Read mode : Secure
Utilize accurate stream : Yes
Defeat audio cache : Yes
Make use of C2 pointers : No

Read offset correction

: 12
Overread into Lead-In and Lead-Out : No
Fill up missing offset samples with silence : Yes
Delete leading and trailing silent blocks : No
Null samples used in CRC calculations : Yes
Used interface
: Native Win32 interface for Win NT & 2000
Gap handling
: Appended to previous track

Used output format : User Defined Encoder
Selected bitrate : 320 kBit/s
Quality : High
Add ID3 tag : No
Command line compressor : C:\Program Files\FLAC\flac.exe
Additional command line options : -8 -V -T "ARTIST=%a" -T "TITLE=%t" -T "ALBUM=%g" -T "DATE=%y" -T "TRACKNUMBER=%n" -T "GENRE=%m" -T "COMMENT=EAC FLAC 1.2.1 -8" %s

TOC of the extracted CD Track | Start | Length | Start sector | End sector
1 | 0:00.00 | 4:38.01 | 0 | 20850 2 | 4:38.01 | 4:44.19 | 20851 | 42169 3 | 9:22.20 | 5:44.27 | 42170 | 67996 4 | 15:06.47 | 4:20.71 | 67997 | 87567 5 | 19:27.43 | 6:46.14 | 87568 | 118031 6 | 26:13.57 | 4:49.43 | 118032 | 139749 7 | 31:03.25 | 4:41.68 | 139750 | 160892 8 | 35:45.18 | 4:02.47 | 160893 | 179089 9 | 39:47.65 | 5:45.31 | 179090 | 204995
10 | 45:33.21 | 4:27.74 | 204996 | 225094
11 | 50:01.20 | 4:32.32 | 225095 | 245526
12 | 54:33.52 | 4:49.51 | 245527 | 267252
13 | 59:23.28 | 6:37.32 | 267253 | 297059
14 | 66:00.60 | 6:13.62 | 297060 | 325096
15 | 72:14.47 | 4:56.71 | 325097 | 347367

Track 1 Filename D:\Michael Jackson - HIStory - Past, Present And Future - Book I (1995) [FLAC] (2-CD) (2009 Japan Cardboard Sleeve Mini LP Reissue) (Ltd. Release)\Disc 2 - HIStory Continues\01 - Scream (Duet with Janet Jackson).wav Pre-gap length 0:00:02.00 Peak level 100.0 %
Track quality 100.0 %
Test CRC 944F013B
Copy CRC 944F013B
Track not present in AccurateRip database
Copy OK

Track 2 Filename D:\Michael Jackson - HIStory - Past, Present And Future - Book I (1995) [FLAC] (2-CD) (2009 Japan Cardboard Sleeve Mini LP Reissue) (Ltd. Release)\Disc 2 - HIStory Continues\02 - They Don't Care About Us.wav Peak level 100.0 %
Track quality 99.9 %
Test CRC 606A1A58
Copy CRC 606A1A58
Track not present in AccurateRip database
Copy OK

Track 3 Filename D:\Michael Jackson - HIStory - Past, Present And Future - Book I (1995) [FLAC] (2-CD) (2009 Japan Cardboard Sleeve Mini LP Reissue) (Ltd. Release)\Disc 2 - HIStory Continues\03 - Stranger In Moscow.wav Peak level 100.0 %
Track quality 99.9 %
Test CRC 7BF4B4D9
Copy CRC 7BF4B4D9
Track not present in AccurateRip database
Copy OK

Track 4 Filename D:\Michael Jackson - HIStory - Past, Present And Future - Book I (1995) [FLAC] (2-CD) (2009 Japan Cardboard Sleeve Mini LP Reissue) (Ltd. Release)\Disc 2 - HIStory Continues\04 - This Time Around.wav Peak level 100.0 %
Track quality 100.0 %
Test CRC 92B78E3E
Copy CRC 92B78E3E
Track not present in AccurateRip database
Copy OK

Track 5 Filename D:\Michael Jackson - HIStory - Past, Present And Future - Book I (1995) [FLAC] (2-CD) (2009 Japan Cardboard Sleeve Mini LP Reissue) (Ltd. Release)\Disc 2 - HIStory Continues\05 - Earth Song.wav Peak level 100.0 %
Track quality 100.0 %
Test CRC 550DF506
Copy CRC 550DF506
Track not present in AccurateRip database
Copy OK

Track 6 Filename D:\Michael Jackson - HIStory - Past, Present And Future - Book I (1995) [FLAC] (2-CD) (2009 Japan Cardboard Sleeve Mini LP Reissue) (Ltd. Release)\Disc 2 - HIStory Continues\06 - D.S..wav Peak level 100.0 %
Track quality 99.9 %
Test CRC 42CF80B5
Copy CRC 42CF80B5
Track not present in AccurateRip database
Copy OK

Track 7 Filename D:\Michael Jackson - HIStory - Past, Present And Future - Book I (1995) [FLAC] (2-CD) (2009 Japan Cardboard Sleeve Mini LP Reissue) (Ltd. Release)\Disc 2 - HIStory Continues\07 - Money.wav Peak level 100.0 %
Track quality 99.9 %
Test CRC D7AEA496
Copy CRC D7AEA496
Track not present in AccurateRip database
Copy OK

Track 8 Filename D:\Michael Jackson - HIStory - Past, Present And Future - Book I (1995) [FLAC] (2-CD) (2009 Japan Cardboard Sleeve Mini LP Reissue) (Ltd. Release)\Disc 2 - HIStory Continues\08 - Come Together.wav Peak level 100.0 %
Track quality 100.0 %
Test CRC BF656583
Copy CRC BF656583
Track not present in AccurateRip database
Copy OK

Track 9 Filename D:\Michael Jackson - HIStory - Past, Present And Future - Book I (1995) [FLAC] (2-CD) (2009 Japan Cardboard Sleeve Mini LP Reissue) (Ltd. Release)\Disc 2 - HIStory Continues\09 - You Are Not Alone.wav Peak level 100.0 %
Track quality 100.0 %
Test CRC 9BCD1BE0
Copy CRC 9BCD1BE0
Track not present in AccurateRip database
Copy OK

Track 10 Filename D:\Michael Jackson - HIStory - Past, Present And Future - Book I (1995) [FLAC] (2-CD) (2009 Japan Cardboard Sleeve Mini LP Reissue) (Ltd. Release)\Disc 2 - HIStory Continues\10 - Childhood (Theme From 'Free Willy 2').wav Peak level 100.0 %
Track quality 99.9 %
Test CRC F5D67FD5
Copy CRC F5D67FD5
Track not present in AccurateRip database
Copy OK

Track 11 Filename D:\Michael Jackson - HIStory - Past, Present And Future - Book I (1995) [FLAC] (2-CD) (2009 Japan Cardboard Sleeve Mini LP Reissue) (Ltd. Release)\Disc 2 - HIStory Continues\11 - Tabloid Junkie.wav Peak level 100.0 %
Track quality 100.0 %
Test CRC FD308864
Copy CRC FD308864
Track not present in AccurateRip database
Copy OK

Track 12 Filename D:\Michael Jackson - HIStory - Past, Present And Future - Book I (1995) [FLAC] (2-CD) (2009 Japan Cardboard Sleeve Mini LP Reissue) (Ltd. Release)\Disc 2 - HIStory Continues\12 - 2 Bad.wav Peak level 100.0 %
Track quality 100.0 %
Test CRC FB9D8A55
Copy CRC FB9D8A55
Track not present in AccurateRip database
Copy OK

Track 13 Filename D:\Michael Jackson - HIStory - Past, Present And Future - Book I (1995) [FLAC] (2-CD) (2009 Japan Cardboard Sleeve Mini LP Reissue) (Ltd. Release)\Disc 2 - HIStory Continues\13 - HIStory.wav Peak level 100.0 %
Track quality 100.0 %
Test CRC 49C42A3D
Copy CRC 49C42A3D
Track not present in AccurateRip database
Copy OK

Track 14 Filename D:\Michael Jackson - HIStory - Past, Present And Future - Book I (1995) [FLAC] (2-CD) (2009 Japan Cardboard Sleeve Mini LP Reissue) (Ltd. Release)\Disc 2 - HIStory Continues\14 - Little Susie.wav Peak level 95.1 %
Track quality 100.0 %
Test CRC 02F47F84
Copy CRC 02F47F84
Track not present in AccurateRip database
Copy OK

Track 15 Filename D:\Michael Jackson - HIStory - Past, Present And Future - Book I (1995) [FLAC] (2-CD) (2009 Japan Cardboard Sleeve Mini LP Reissue) (Ltd. Release)\Disc 2 - HIStory Continues\15 - Smile.wav Peak level 94.4 %
Track quality 100.0 %
Test CRC 11651D40
Copy CRC 11651D40
Track not present in AccurateRip database
Copy OK

None of the tracks are present in the AccurateRip database

No errors occurred

End of status report

http://i70.fastpic.ru/big/2015/0604/8a/4452af6ddddd4892e0819b33e7e2148a.jpg

http://i70.fastpic.ru/big/2015/0604/05/d51d5eb2e8af7c6b4f32e65d4a75f605.jpg

http://i72.fastpic.ru/big/2015/0604/fc/5333e0aa2fed145398da5029bf45c6fc.jpg

DOWNLOAD LINKS:
Buy Premium To Support Me & Get Resumable Support & Max Speed


Links are Interchangeable - No Password - Single Extraction

 
 
 
Dear visitor, you went to the site as an unregistered user. We encourage you to register or enter the site under your name.
 
   
 
 (Votes #: 0)