2013Zone For Latest Downloads

 
     
 
Legal Downloads » Music » Hot Tuna - America's Choice (1975) [Japanese Reissue, 2008]
Menu
Home Applications
Games Movies
Music TV Shows
Torrents Graphics

Sitemap

RSS
 
Advanced Search
Last News
Site Info
Top Contributors:
  1    supper88 32766
  2    admin 32693
  3    Whisky 10080
  4    Shark_ 8911
  5    creativelivenew 8706
  6    whathesupa 2799
  7    candymypost 840
  8    hvnteam 629
  9    vuong87 3


Articles:
  This Hour: 10
  Today: 10
  This Month: 62
  All Time: 515562


Torrents:
  Today: 0
  Yesterday: 10
  All Time: 156685


Membership:
  Registered Today :0
  This Hour:0
  This Month:0
  Total:14
  Banned:1

{online}
{inform_torrent}
Friend:
We Recomend
Trend
Trend
XsAd

Search In Site

Music : Hot Tuna - America's Choice (1975) [Japanese Reissue, 2008]
 
http://i69.fastpic.ru/big/2015/0613/b7/114f486a3d106ab54a3b77f970e0a8b7.jpg

Hot Tuna - America's Choice (1975) [Japanese Reissue, 2008]
EAC Rip | FLAC: Tracks+Cue+Log | 330 Mb | MP3 CBR 320 kbps | 114 Mb | Scans | 21 Mb | Time: 45:02
Genre: Rock, Blues Rock | Label: BMG Japan, Inc. | Cat.№: BVCM-35463

"America's Choice was the fifth album by the American blues rock band Hot Tuna, recorded in 1974, and released in 1975 as Grunt BFL1-0820. The album was also released in Quadraphonic as Grunt BFD1-0820. The first of the "Rampage" trilogy albums (the others being Yellow Fever and Hoppkorv) recorded by the now power trio, it marked a major shift in musical direction by the group. With new drummer Bob Steeler, Tuna now performed in a predominantly hard rock style rather than their previous more acoustic flavored manner."



Track Listing

01. Sleep Song (04:27)
02. Funky #7 (05:49)
03. Walkin' Blues (05:22)
04. Invitation (06:55)
05. Hit Single #1 (05:16)
06. Serpent Of Dreams (06:53)
07. I Don't Wanna Go (04:59)
08. Great Divide: Revisited (05:18)

Produced by Hot Tuna and Mallory Earl

The Band

* Jorma Kaukonen - vocals, guitars
* Jack Casady - bass
* Bob Steeler - drums, percussion

Notes

Jefferson Family Original Album Paper Sleeve Collection

2008 Japanese exclusive limited edition 8-track 24-Bit digitally remastered CD album, the 5th longplayer from Jefferson Airplane's Jack Casady and Jorma Kaukonen, originally released in 1975, presented in mini LP-style card sleeve + obi strip.

Exact Audio Copy V0.99 prebeta 4 from 23. January 2008

EAC extraction logfile from 2. October 2008, 11:35

Hot Tuna / America's Choice

Used drive : PIONEER DVD-RW DVR-112D Adapter: 0 ID: 1

Read mode : Secure
Utilize accurate stream : Yes
Defeat audio cache : Yes
Make use of C2 pointers : No

Read offset correction

: 48
Overread into Lead-In and Lead-Out : No
Fill up missing offset samples with silence : Yes
Delete leading and trailing silent blocks : No
Null samples used in CRC calculations : Yes
Used interface
: Installed external ASPI interface
Gap handling
: Appended to previous track

Used output format : Internal WAV Routines
Sample format : 44.100 Hz; 16 Bit; Stereo

TOC of the extracted CD Track | Start | Length | Start sector | End sector
1 | 0:00.00 | 4:27.04 | 0 | 20028 2 | 4:27.04 | 5:49.70 | 20029 | 46273 3 | 10:16.74 | 5:22.55 | 46274 | 70478 4 | 15:39.54 | 6:55.62 | 70479 | 101665 5 | 22:35.41 | 5:16.01 | 101666 | 125366 6 | 27:51.42 | 6:53.59 | 125367 | 156400 7 | 34:45.26 | 4:59.06 | 156401 | 178831 8 | 39:44.32 | 5:17.71 | 178832 | 202677

Track 1 Filename P:\Hot Tuna\America's Choice\01 - Sleep Song.wav Pre-gap length 0:00:02.00 Peak level 100.0 %
Track quality 100.0 %
Test CRC E0A8758D
Copy CRC E0A8758D
Track not present in AccurateRip database
Copy OK

Track 2 Filename P:\Hot Tuna\America's Choice\02 - Funky #7.wav Peak level 100.0 %
Track quality 100.0 %
Test CRC F6B9F723
Copy CRC F6B9F723
Track not present in AccurateRip database
Copy OK

Track 3 Filename P:\Hot Tuna\America's Choice\03 - Walkin' Blues.wav Peak level 100.0 %
Track quality 99.9 %
Test CRC A9ED14AB
Copy CRC A9ED14AB
Track not present in AccurateRip database
Copy OK

Track 4 Filename P:\Hot Tuna\America's Choice\04 - Invitation.wav Peak level 100.0 %
Track quality 100.0 %
Test CRC F9CDE410
Copy CRC F9CDE410
Track not present in AccurateRip database
Copy OK

Track 5 Filename P:\Hot Tuna\America's Choice\05 - Hit Single #1.wav Pre-gap length 0:00:01.45 Peak level 100.0 %
Track quality 100.0 %
Test CRC 124A6A40
Copy CRC 124A6A40
Track not present in AccurateRip database
Copy OK

Track 6 Filename P:\Hot Tuna\America's Choice\06 - Serpent Of Dreams.wav Pre-gap length 0:00:01.52 Peak level 100.0 %
Track quality 100.0 %
Test CRC 50D642DC
Copy CRC 50D642DC
Track not present in AccurateRip database
Copy OK

Track 7 Filename P:\Hot Tuna\America's Choice\07 - I Don't Wanna Go.wav Peak level 100.0 %
Track quality 100.0 %
Test CRC 57191C4F
Copy CRC 57191C4F
Track not present in AccurateRip database
Copy OK

Track 8 Filename P:\Hot Tuna\America's Choice\08 - Great Divide Revisited.wav Pre-gap length 0:00:01.69 Peak level 100.0 %
Track quality 100.0 %
Test CRC 7833B793
Copy CRC 7833B793
Track not present in AccurateRip database
Copy OK

None of the tracks are present in the AccurateRip database

No errors occurred

End of status report

Many thanks to the original uploader: vmsn
DOWNLOAD LINKS:
Buy Premium To Support Me & Get Resumable Support & Max Speed


Links are Interchangeable - No Password - Single Extraction

Hot Tuna - America's Choice (1975) [Japanese Reissue, 2008] Fast Download


XsAd2

 
 
 
Dear visitor, you went to the site as an unregistered user. We encourage you to register or enter the site under your name.
 
   
 
 (Votes #: 0)