2013Zone For Latest Downloads

 
     
 
Legal Downloads » Music » Wally - Valley Gardens (1975) [2015, Warner Music Japan, WPCR-16308]
Menu
Home Applications
Games Movies
Music TV Shows
Torrents Graphics

Sitemap

RSS
 
Advanced Search
Last News
Site Info
Top Contributors:
  1    supper88 32766
  2    admin 32711
  3    Whisky 10080
  4    Shark_ 8911
  5    creativelivenew 8706
  6    whathesupa 2799
  7    candymypost 840
  8    hvnteam 629
  9    vuong87 3


Articles:
  This Hour: 0
  Today: 0
  This Month: 0
  All Time: 515501


Torrents:
  Today: 0
  Yesterday: 0
  All Time: 156676


Membership:
  Registered Today :0
  This Hour:0
  This Month:0
  Total:14
  Banned:1

{online}
{inform_torrent}
Friend:
Full Download Scripts
Torrent Download
Trend
Trend

Search In Site

Music : Wally - Valley Gardens (1975) [2015, Warner Music Japan, WPCR-16308]
 
http://i71.fastpic.ru/big/2015/0618/c0/10200a01c2a8aa9662d46728d0eaffc0.jpg

Wally - Valley Gardens (1975)
EAC | Flac(Image) + Cue + Log & MP3 CBR 320Kbps
Warner Music Japan, WPCR-16308 | ~ 254 or 113 Mb | Scans(png) -> 86 Mb
Progressive Rock

"Wally´s second album is considerable better than their debut. Their odd mix of symphonic rock and country music is much more even here and although it is hardly great, it showed they were developing their very own sound and maturing..."


Tracklist:

01 Valley Gardens
02 Nez Percé
03 The Mood I'm In
04 The Reason Why
I Nolan
II The Charge
III Disillusion

Musicians:

- Pete Cosker / Electric and acoustic guitars, vocals, bass guitar
- Nick Glennie-Smith / Keyboards
- Paul Middleton / Steel guitar, bass guitar
- Roger Narraway / Percussion
- Pete Sage / Electric violin, bass guitar, mandolin
- Roy Webber / Lead vocals, acoustic guitar

Guests:

- Jan Glennie Smith / Vocals
- Madeline Bell / Vocals
- Ray Wherstein / Sax


Exact Audio Copy V1.0 beta 6 from 9. April 2015

EAC extraction logfile from 6. June 2015, 17:59

Wally / Valley Gardens SHM-CD

Used drive : PLEXTOR BD-R PX-B950SA Adapter: 1 ID: 1

Read mode : Secure
Utilize accurate stream : Yes
Defeat audio cache : Yes
Make use of C2 pointers : No

Read offset correction

: 6
Overread into Lead-In and Lead-Out : No
Fill up missing offset samples with silence : Yes
Delete leading and trailing silent blocks : No
Null samples used in CRC calculations : Yes
Used interface
: Native Win32 interface for Win NT & 2000

Used output format : Internal WAV Routines
Sample format : 44.100 Hz; 16 Bit; Stereo

TOC of the extracted CD Track | Start | Length | Start sector | End sector
1 | 0:00.00 | 9:50.54 | 0 | 44303 2 | 9:50.54 | 5:03.15 | 44304 | 67043 3 | 14:53.69 | 7:07.06 | 67044 | 99074 4 | 22:01.00 | 18:28.06 | 99075 | 182180

Range status and errors

Selected range Filename C:\Users\Meijin\Desktop\ALLexxess\Wally\1975 Valley Gardens (SHM-CD Warner Music Japan 2015)\Wally - Valley Gardens SHM-CD.wav Peak level 100.0 %
Extraction speed 6.6 X
Range quality 100.0 %
Test CRC AF436694
Copy CRC AF436694
Copy OK

No errors occurred


AccurateRip summary

Track 1 not present in database
Track 2 not present in database
Track 3 not present in database
Track 4 not present in database

None of the tracks are present in the AccurateRip database

End of status report

---- CUETools DB Plugin V2.1.6

[CTDB TOCID: uie709rldW7DpKjI_b1Zi5Umomk-] disk not present in database
Submit result: uie709rldW7DpKjI_b1Zi5Umomk- has been uploaded

==== Log checksum B92F692BF965B8D06316313BCD4187248E8E6FD1895626F87A34B34A81012F3A ====

foobar2000 1.2.9 / Dynamic Range Meter 1.1.1
log date: 2015-06-16 13:46:40

------
Analyzed: Wally / Valley Gardens SHM-CD
------

DR Peak RMS Duration Track
------
DR9 0.00 dB -11.89 dB 9:51 01-Valley Gardens
DR9 0.00 dB -13.11 dB 5:03 02-Nez Perce
DR10 0.00 dB -13.66 dB 7:07 03-The Mood I'm In
DR9 0.00 dB -13.22 dB 18:28 04-The Reason Why
------

Number of tracks: 4
Official DR value: DR9

Samplerate: 44100 Hz
Channels: 2
Bits per sample: 16
Bitrate: 765 kbps
Codec: FLAC

[CUETools log; Date: 16.06.2015 13:37:48; Version: 2.1.4]
[CTDB TOCID: uie709rldW7DpKjI_b1Zi5Umomk-] found.
Track | CTDB Status
1 | (1/1) Accurately ripped
2 | (1/1) Accurately ripped
3 | (1/1) Accurately ripped
4 | (1/1) Accurately ripped
[AccurateRip ID: 0005fd9c-00185e12-31097d04] disk not present in database.

Track Peak [ CRC32 ] [W/O NULL] [ LOG ]
-- 100,0 [AF436694] [AD56D237] CRC32
01 100,0 [082C5E69] [4F0CD7CE]
02 100,0 [582E7DE3] [757973DE]
03 100,0 [0344FE7C] [89E7828D]
04 100,0 [3EE11002] [F162CE34]

http://i69.fastpic.ru/big/2015/0618/14/a2b83606cbec6836780de4b95fc56f14.jpg

DOWNLOAD LINKS:
Buy Premium To Support Me & Get Resumable Support & Max Speed


Links are Interchangeable - No Password - Single Extraction

Wally - Valley Gardens (1975) [2015, Warner Music Japan, WPCR-16308] Fast Download



 
 
 
Dear visitor, you went to the site as an unregistered user. We encourage you to register or enter the site under your name.
 
   
 
 (Votes #: 0)