2013Zone For Latest Downloads

 
     
 
Legal Downloads » TV Shows » Gascoigne (2015)
Menu
Home Applications
Games Movies
Music TV Shows
Torrents Graphics

Sitemap

RSS
 
Advanced Search
Last News
Site Info
Top Contributors:
  1    supper88 32766
  2    admin 32693
  3    Whisky 10080
  4    Shark_ 8911
  5    creativelivenew 8706
  6    whathesupa 2799
  7    candymypost 840
  8    hvnteam 629
  9    vuong87 3


Articles:
  This Hour: 0
  Today: 0
  This Month: 10
  All Time: 515561


Torrents:
  Today: 0
  Yesterday: 0
  All Time: 156684


Membership:
  Registered Today :0
  This Hour:0
  This Month:0
  Total:14
  Banned:1

{online}
{inform_torrent}
Friend:
We Recomend
Trend
Trend
Ad1

Search In Site

TV Shows : Gascoigne (2015)
 
http://i72.fastpic.ru/big/2015/0617/0a/37d202f51c85c59234ba6d5081728a0a.jpg

Gascoigne (2015)
Bluray-rip 1080p | 1920x1080 | MKV/x264 @ 9365 Kbps | 86mn | Audio: English DTS 1510 kbps, 6 channels | Subs: None | 6.55 GB
Genre: Documentary

Salon Pictures' feature documentary about the maverick soccer player Paul Gascoigne, known both for his sublime soccer skills on the pitch and his self-destructive behavior off the field. "Gascoigne," which is directed by Jane Preston ("Graffiti Wars"), and produced by Salon's Nick Taussig and Paul Van Carter, is built around an extensive interview with Gascoigne, and accompanied by archive material showing career highlights, and interviews with those who knew him, and those he played with or against. Gascoigne rose from poverty-stricken beginnings in North-East England to forge a stellar career with a ferocious free kick and the ability to dribble past entire teams. The film is not only a sports biographical documentary, but also a "compelling narrative-driven character study and cinematic portrayal of infamy."
More info

Video
ID
: 1
Format : AVC
Format/Info

: Advanced Video Codec
Format profile : [email protected]
Format settings, CABAC : Yes
Format settings, ReFrames : 4 frames
Codec ID : V_MPEG4/ISO/AVC
Duration : 1h 26mn
Bit rate : 9 365 Kbps
Width : 1 920 pixels
Height : 1 080 pixels
Display aspect ratio : 16:9
Frame rate

: 25.000 fps
Color space

: YUV
Chroma subsampling : 4:2:0
Bit depth: 8 bits
Scan type: Progressive
Bits/(Pixel*Frame) : 0.181
Stream size

: 5.51 GiB (84%)
Writing library : x264 core 146 r2538 121396c
Encoding settings : cabac=1 / ref=4 / deblock=1:0:0 / analyse=0x3:0x133 / me=umh / subme=7 / psy=1 / psy_rd=1.00:0.00 / mixed_ref=1 / me_range=16 / chroma_me=1 / trellis=1 / 8x8dct=1 / cqm=0 / deadzone=21,11 / fast_pskip=0 / chroma_qp_offset=-2 / threads=60 / lookahead_threads=8 / sliced_threads=0 / nr=0 / decimate=1 / interlaced=0 / bluray_compat=0 / constrained_intra=0 / bframes=3 / b_pyramid=2 / b_adapt=1 / b_bias=0 / direct=1 / weightb=1 / open_gop=0 / weightp=2 / keyint=250 / keyint_min=25 / scenecut=40 / intra_refresh=0 / rc_lookahead=40 / rc=2pass / mbtree=1 / bitrate=9365 / ratetol=1.0 / qcomp=0.60 / qpmin=0 / qpmax=69 / qpstep=4 / cplxblur=20.0 / qblur=0.5 / ip_ratio=1.40 / aq=1:1.00
Language : English

Audio
ID
: 2
Format : DTS
Format/Info

: Digital Theater Systems
Codec ID : A_DTS
Duration : 1h 26mn
Bit rate mode : Constant
Bit rate : 1 510 Kbps
Channel(s)

: 6 channels
Channel positions : Front: L C R, Side: L R, LFE
Sampling rate : 48.0 KHz
Bit depth: 24 bits
Compression mode : Lossy
Stream size

: 932 MiB (14%)
Language : English

Menu
00:00:00.000 : en:00:00:00.000
00:05:17.560 : en:00:05:17.560
00:10:35.800 : en:00:10:35.800
00:16:24.160 : en:00:16:24.160
00:22:11.480 : en:00:22:11.480
00:26:30.240 : en:00:26:30.240
00:34:17.440 : en:00:34:17.440
00:39:31.120 : en:00:39:31.120
00:47:16.200 : en:00:47:16.200
00:52:48.200 : en:00:52:48.200
00:58:24.240 : en:00:58:24.240
01:04:17.520 : en:01:04:17.520
01:08:59.560 : en:01:08:59.560
01:14:12.680 : en:01:14:12.680
01:19:15.600 : en:01:19:15.600
01:23:17.000 : en:01:23:17.000

http://i72.fastpic.ru/big/2015/0617/9d/e9dd733a0f5eef77af5434f9622cb89d.jpg


DOWNLOAD LINKS:
Buy Premium To Support Me & Get Resumable Support & Max Speed


Links are Interchangeable - No Password - Single Extraction

Gascoigne (2015) Fast Download


Ad2

 
 
 
Dear visitor, you went to the site as an unregistered user. We encourage you to register or enter the site under your name.
 
   
 
 (Votes #: 0)