2013Zone For Latest Downloads

 
     
 
Legal Downloads » Music » Kenneth Gilbert - J.S. Bach: The Well-Tempered Clavier, Book II (2003) 2CD
Menu
Home Applications
Games Movies
Music TV Shows
Torrents Graphics

Sitemap

RSS
 
Advanced Search
Last News
Site Info
Top Contributors:
  1    supper88 32766
  2    admin 32693
  3    Whisky 10080
  4    Shark_ 8911
  5    creativelivenew 8706
  6    whathesupa 2799
  7    candymypost 840
  8    hvnteam 629
  9    vuong87 3


Articles:
  This Hour: 0
  Today: 0
  This Month: 10
  All Time: 515561


Torrents:
  Today: 0
  Yesterday: 0
  All Time: 156684


Membership:
  Registered Today :0
  This Hour:0
  This Month:0
  Total:14
  Banned:1

{online}
{inform_torrent}
Friend:
We Recomend
Trend
Trend
Ad1

Search In Site

Music : Kenneth Gilbert - J.S. Bach: The Well-Tempered Clavier, Book II (2003) 2CD
 
http://i69.fastpic.ru/big/2015/0618/3b/07b71960ec6a881374b4154202da433b.jpg

Kenneth Gilbert - J.S. Bach: The Well-Tempered Clavier, Book II (2003) 2CD
EAC | FLAC | Image (Cue&Log) ~ 1.01 Gb (incl 5%) | Mp3 (CBR320) ~ 352 Mb (incl 5%) | Scans included
Genre: Classical | Label: Archiv Produktion | # 474 546-2 | Time: 02:24:50

"In a way, this is the best possible version of the WTC to someone who is looking for a balanced, deep and totally honest version. The harpsichord is a beautiful Flemish-French (recent research shows it is rather more French than Flemish) harpsichord (Gilbert's own) that has a marvelous sound: rich and deep, and yet bright and clear. Professor Gilbert's version is as new now as it was when it was released. It is totally respectful of the music (you won't find eccentricities, here, just the music but superlatively played). He has a very cantabile sense of the music - every voice is respected - and his Bach is phrased almost as a dance, rather than as gesturing. He seems to belie Leonhardt, when the Dutch says that the piano was meant to sing and the harpsichord to speak; in Gilbert's hands, it really sings). Do not expect strong chords, abrupt contrasts or anything like that. Gilbert's version is for the connoisseur rather than the Fireworks enthusiast. If you examine, in detail, the way he plays, you will find that every voice is subtly sung, that the amount of work and serious thought he lavished into Bach's music is prodigious."



Tracklist:

CD1:

01. WTC, Book II - Prelude & Fugue #01 in C major, BWV 870 (04:15)
02. WTC, Book II - Prelude & Fugue #02 in C minor, BWV 871 (04:54)
03. WTC, Book II - Prelude & Fugue #03 in C sharp major, BWV 872 (04:02)
04. WTC, Book II - Prelude & Fugue #04 in C sharp minor, BWV 873 (06:22)
05. WTC, Book II - Prelude & Fugue #05 in D major, BWV 874 (08:20)
06. WTC, Book II - Prelude & Fugue #06 in D minor, BWV 875 (03:35)
07. WTC, Book II - Prelude & Fugue #07 in E flat major, BWV 876 (04:56)
08. WTC, Book II - Prelude & Fugue #08 in D sharp minor, BWV 877 (08:18)
09. WTC, Book II - Prelude & Fugue #09 in E major, BWV 878 (08:15)
10. WTC, Book II - Prelude & Fugue #10 in E minor, BWV 879 (07:32)
11. WTC, Book II - Prelude & Fugue #11 in F major, BWV 880 (05:29)
12. WTC, Book II - Prelude & Fugue #12 in F minor, BWV 881 (06:24)

CD2:

01. WTC, Book II - Prelude & Fugue #13 In F sharp major, BWV 882 (05:54)
02. WTC, Book II - Prelude & Fugue #14 In F sharp minor, BWV 883 (07:43)
03. WTC, Book II - Prelude & Fugue #15 In G major, BWV 884 (04:06)
04. WTC, Book II - Prelude & Fugue #16 In G minor, BWV 885 (05:33)
05. WTC, Book II - Prelude & Fugue #17 In A flat major, BWV 886 (07:24)
06. WTC, Book II - Prelude & Fugue #18 In G sharp Minor, BWV 887 (06:56)
07. WTC, Book II - Prelude & Fugue #19 In A major, BWV 888 (03:21)
08. WTC, Book II - Prelude & Fugue #20 In A minor, BWV 889 (04:43)
09. WTC, Book II - Prelude & Fugue #21 In B flat major, BWV 890 (06:38)
10. WTC, Book II - Prelude & Fugue #22 In B flat Minor, BWV 891 (08:34)
11. WTC, Book II - Prelude & Fugue #23 In B major, BWV 892 (06:22)
12. WTC, Book II - Prelude & Fugue #24 In B minor, BWV 893 (04:59)


Exact Audio Copy V1.0 beta 3 from 29. August 2011

Отчёт EAC об извлечении, выполненном 6. мая 2015, 15:02

J. S. Bach / Well-Tempered Clavier, Book II - CD1

Дисковод: Optiarc DVD RW AD-7260S Adapter: 0 ID: 1

Режим чтения : Достоверность
?спользование точного потока : Да
Отключение кэ?а аудио : Да
?спользование указателей C2 : Нет

Коррекция смещения при чтении : 48
Способность читать области Lead-in и Lead-out : Нет
Заполнение пропущенных сэмплов ти?иной : Да
Удаление блоков с ти?иной в начале и конце : Нет
При вычислениях CRC использовались нулевые сэмплы : Да
?нтерфейс : Встроенный Win32-интерфейс для Win NT/2000

Выходной формат : Пользовательский кодировщик
Выбранный битрейт : 896 kBit/s
Качество : Высокий
Добавление ID3-тега : Нет
Утилита сжатия : C:\Program Files\FLAC Frontend\tools\flac.exe
Дополнительные параметры : -V -8 -T "Date=%year%" -T "Genre=%genre%" %source%

TOC извлечённого CD Трек | Старт | Длительность | Начальный сектор | Конечный сектор

1 | 0:00.32 | 4:15.03 | 32 | 19159
2 | 4:15.35 | 4:54.40 | 19160 | 41249
3 | 9:10.00 | 4:02.12 | 41250 | 59411
4 | 13:12.12 | 6:22.73 | 59412 | 88134
5 | 19:35.10 | 8:20.27 | 88135 | 125661
6 | 27:55.37 | 3:35.20 | 125662 | 141806
7 | 31:30.57 | 4:56.35 | 141807 | 164041
8 | 36:27.17 | 8:18.65 | 164042 | 201456
9 | 44:46.07 | 8:15.60 | 201457 | 238641
10 | 53:01.67 | 7:32.73 | 238642 | 272614
11 | 60:34.65 | 5:29.42 | 272615 | 297331
12 | 66:04.32 | 6:24.48 | 297332 | 326179

Характеристики диапазона извлечения и сообщения об о?ибках

Выбранный диапазон ?мя файла D:\EAC\Мои раздачи\Bach - WTC - Gilbert\Bach - WTC II - Gilbert\CD1\J. S. Bach - Well-Tempered Clavier, Book II - CD1.wav Пиковый уровень 90.8 %
Скорость извлечения 4.5 X
Качество диапазона 100.0 %
CRC теста B76FD017
CRC копии B76FD017
Копирование... OK

О?ибок не произо?ло


AccurateRip: сводка

Трек 1 : извлечено точно (доверие 2) [98E2B50E] (AR v2)
Трек 2 : извлечено точно (доверие 2) [6152927A] (AR v2)
Трек 3 : извлечено точно (доверие 2) [E0A21E35] (AR v2)
Трек 4 : извлечено точно (доверие 2) [36504D3A] (AR v2)
Трек 5 : извлечено точно (доверие 2) [77D07502] (AR v2)
Трек 6 : извлечено точно (доверие 2) [33CEE5A2] (AR v2)
Трек 7 : извлечено точно (доверие 2) [EB7473D2] (AR v2)
Трек 8 : извлечено точно (доверие 2) [3C223B46] (AR v2)
Трек 9 : извлечено точно (доверие 2) [89EA68A6] (AR v2)
Трек 10 : извлечено точно (доверие 2) [30D97D85] (AR v2)
Трек 11 : извлечено точно (доверие 2) 3E7AD07 (AR v2)
Трек 12 : извлечено точно (доверие 2) [A75D0CFE] (AR v2)

Все треки извлечены точно

Конец отчёта

==== Контрольная сумма отчёта 826DC78CDB343A09EBE95208CE56CEDC7B2BB8200E91385C1113079000EEF83C ====

foobar2000 1.2 / Dynamic Range Meter 1.1.1
log date: 2015-06-16 16:18:42

------
Analyzed: J. S. Bach / Well-Tempered Clavier, Book II - CD1
------

DR Peak RMS Duration Track
------
DR12 -0.84 dB -15.55 dB 4:15 01-WTC, Book II - Prelude & Fugue #1 in C Major, BWV 870
DR12 -1.79 dB -17.28 dB 4:55 02-WTC, Book II - Prelude & Fugue #2 in C minor, BWV 871
DR12 -4.24 dB -19.26 dB 4:02 03-WTC, Book II - Prelude & Fugue #3 in C-Sharp Major, BWV 872
DR12 -3.67 dB -17.94 dB 6:23 04-WTC, Book II - Prelude & Fugue #4 in C sharp minor, BWV 873
DR12 -1.20 dB -16.09 dB 8:20 05-WTC, Book II - Prelude & Fugue #5 in D Major, BWV 874
DR12 -3.59 dB -17.92 dB 3:35 06-WTC, Book II - Prelude & Fugue #6 in D minor, BWV 875
DR13 -5.25 dB -20.76 dB 4:56 07-WTC, Book II - Prelude & Fugue #7 in E-Flat Major, BWV 876
DR13 -4.88 dB -20.62 dB 8:19 08-WTC, Book II - Prelude & Fugue #8 in D-sharp minor, BWV 877
DR14 -1.53 dB -18.92 dB 8:16 09-WTC, Book II - Prelude & Fugue #9 in E Major, BWV 878
DR12 -3.77 dB -17.60 dB 7:33 10-WTC, Book II - Prelude & Fugue #10 in E minor, BWV 879
DR12 -3.74 dB -18.38 dB 5:30 11-WTC, Book II - Prelude & Fugue #11 in F Major, BWV 880
DR12 -4.08 dB -18.61 dB 6:25 12-WTC, Book II - Prelude & Fugue #12 in F minor, BWV 881
------

Number of tracks: 12
Official DR value: DR12

Samplerate: 44100 Hz
Channels: 2
Bits per sample: 16
Bitrate: 953 kbps
Codec: FLAC

Exact Audio Copy V1.0 beta 3 from 29. August 2011

Отчёт EAC об извлечении, выполненном 6. мая 2015, 16:33

J. S. Bach / The Well-Tempered Clavier, Book II - CD2

Дисковод: Optiarc DVD RW AD-7260S Adapter: 0 ID: 1

Режим чтения : Достоверность
?спользование точного потока : Да
Отключение кэ?а аудио : Да
?спользование указателей C2 : Нет

Коррекция смещения при чтении : 48
Способность читать области Lead-in и Lead-out : Нет
Заполнение пропущенных сэмплов ти?иной : Да
Удаление блоков с ти?иной в начале и конце : Нет
При вычислениях CRC использовались нулевые сэмплы : Да
?нтерфейс : Встроенный Win32-интерфейс для Win NT/2000

Выходной формат : Пользовательский кодировщик
Выбранный битрейт : 896 kBit/s
Качество : Высокий
Добавление ID3-тега : Нет
Утилита сжатия : C:\Program Files\FLAC Frontend\tools\flac.exe
Дополнительные параметры : -V -8 -T "Date=%year%" -T "Genre=%genre%" %source%

TOC извлечённого CD Трек | Старт | Длительность | Начальный сектор | Конечный сектор

1 | 0:00.32 | 5:54.53 | 32 | 26634
2 | 5:55.10 | 7:43.65 | 26635 | 61424
3 | 13:39.00 | 4:06.57 | 61425 | 79931
4 | 17:45.57 | 5:33.18 | 79932 | 104924
5 | 23:19.00 | 7:24.25 | 104925 | 138249
6 | 30:43.25 | 6:56.57 | 138250 | 169506
7 | 37:40.07 | 3:21.73 | 169507 | 184654
8 | 41:02.05 | 4:43.62 | 184655 | 205941
9 | 45:45.67 | 6:38.68 | 205942 | 235859
10 | 52:24.60 | 8:34.47 | 235860 | 274456
11 | 60:59.32 | 6:22.18 | 274457 | 303124
12 | 67:21.50 | 4:59.62 | 303125 | 325611

Характеристики диапазона извлечения и сообщения об о?ибках

Выбранный диапазон ?мя файла D:\EAC\Мои раздачи\Bach - WTC - Gilbert\Bach - WTC II - Gilbert\CD2\J. S. Bach - The Well-Tempered Clavier, Book II - CD2.wav Пиковый уровень 93.4 %
Скорость извлечения 4.5 X
Качество диапазона 100.0 %
CRC теста 8503B110
CRC копии 8503B110
Копирование... OK

О?ибок не произо?ло


AccurateRip: сводка

Трек 1 : извлечено точно (доверие 2) [5D278561] (AR v2)
Трек 2 : извлечено точно (доверие 2) [8F12BECE] (AR v2)
Трек 3 : извлечено точно (доверие 2) [91757AC7] (AR v2)
Трек 4 : извлечено точно (доверие 2) [50784D7B] (AR v2)
Трек 5 : извлечено точно (доверие 2) [ECDAD141] (AR v2)
Трек 6 : извлечено точно (доверие 2) [03753775] (AR v2)
Трек 7 : извлечено точно (доверие 2) [78B5992F] (AR v2)
Трек 8 : извлечено точно (доверие 2) [0A797C8C] (AR v2)
Трек 9 : извлечено точно (доверие 2) [FBCF016B] (AR v2)
Трек 10 : извлечено точно (доверие 2) [664C2FBB] (AR v2)
Трек 11 : извлечено точно (доверие 2) [FC89AB1A] (AR v2)
Трек 12 : извлечено точно (доверие 2) [CCDDF432] (AR v2)

Все треки извлечены точно

Конец отчёта

==== Контрольная сумма отчёта E06FA22C3133AF58F70597E558DE171EA9D1F091A9D7140FFAA14863EAD33431 ====

foobar2000 1.2 / Dynamic Range Meter 1.1.1
log date: 2015-06-16 16:19:11

------
Analyzed: J. S. Bach / The Well-Tempered Clavier, Book II - CD2
------

DR Peak RMS Duration Track
------
DR12 -3.78 dB -18.48 dB 5:55 01-WTC, Book II - Prelude & Fugue #13 In F Sharp, BWV 882
DR13 -4.42 dB -19.17 dB 7:44 02-WTC, Book II - Prelude & Fugue #14 In F Sharp Minor, BWV 883
DR12 -0.59 dB -15.39 dB 4:07 03-WTC, Book II - Prelude & Fugue #15 In G, BWV 884
DR12 -3.53 dB -18.21 dB 5:33 04-WTC, Book II - Prelude & Fugue #16 In G Minor, BWV 885
DR13 -3.70 dB -18.34 dB 7:24 05-WTC, Book II - Prelude & Fugue #17 In A Flat, BWV 886
DR13 -3.40 dB -18.53 dB 6:57 06-WTC, Book II - Prelude & Fugue #18 In G Sharp Minor, BWV 887
DR11 -4.07 dB -18.60 dB 3:22 07-WTC, Book II - Prelude & Fugue #19 In A, BWV 888
DR13 -2.40 dB -19.39 dB 4:44 08-WTC, Book II - Prelude & Fugue #20 In A Minor, BWV 889
DR12 -4.21 dB -19.40 dB 6:39 09-WTC, Book II - Prelude & Fugue #21 In B Flat, BWV 890
DR13 -2.77 dB -19.51 dB 8:35 10-WTC, Book II - Prelude & Fugue #22 In B Flat Minor, BWV 891
DR13 -2.39 dB -17.13 dB 6:22 11-WTC, Book II - Prelude & Fugue #23 In B, BWV 892
DR12 -6.35 dB -20.64 dB 5:00 12-WTC, Book II - Prelude & Fugue #24 In B Minor, BWV 893
------

Number of tracks: 12
Official DR value: DR12

Samplerate: 44100 Hz
Channels: 2
Bits per sample: 16
Bitrate: 945 kbps
Codec: FLAC

http://i72.fastpic.ru/big/2015/0618/6d/3cd97e2d5d9f4129ecad1ecd0243006d.jpg

All thanks to original releaser - Святогор ?ванович


DOWNLOAD LINKS:
Buy Premium To Support Me & Get Resumable Support & Max Speed


Links are Interchangeable - No Password - Single Extraction

Kenneth Gilbert - J.S. Bach: The Well-Tempered Clavier, Book II (2003) 2CD Fast Download


Ad2

 
 
 
Dear visitor, you went to the site as an unregistered user. We encourage you to register or enter the site under your name.
 
   
 
 (Votes #: 0)