2013Zone For Latest Downloads

 
     
 
Legal Downloads » TV Shows » Channel 4 - The Secret World of Lego (2015)
Menu
Home Applications
Games Movies
Music TV Shows
Torrents Graphics

Sitemap

RSS
 
Advanced Search
Last News
Site Info
Top Contributors:
  1    supper88 32766
  2    admin 32711
  3    Whisky 10080
  4    Shark_ 8911
  5    creativelivenew 8706
  6    whathesupa 2799
  7    candymypost 840
  8    hvnteam 629
  9    vuong87 3


Articles:
  This Hour: 0
  Today: 0
  This Month: 0
  All Time: 515501


Torrents:
  Today: 0
  Yesterday: 0
  All Time: 156676


Membership:
  Registered Today :0
  This Hour:0
  This Month:0
  Total:14
  Banned:1

{online}
{inform_torrent}
Friend:
Full Download Scripts
Torrent Download
Trend
Trend

Search In Site

TV Shows : Channel 4 - The Secret World of Lego (2015)
 

http://i70.fastpic.ru/big/2015/0617/dc/e283f43933e9cbe366f9c642b70263dc.jpg
Channel 4 - The Secret World of Lego (2015)
HDTV | 1280x720 | .MKV/AVC @ 2559 Kbps | 46mn 30s | Audio: English MP2 192 kbps, 2 channels | Subs: None | 934 MiB
Genre: Documentary

"Last year LEGO became the most profitable toy maker in the world. Now this notoriously secretive, privately-owned superbrand has opened its doors. We discover what makes it tick, meet some of its key people and reveal more about the company DNA than ever before. In The Secret World of Lego, we follow Justin, a 23 year old design student, as he travels to LEGO headquarters in Denmark in pursuit of one of the most hotly contested jobs in the world - a LEGO set designer. We meet Liverpudlian Matthew, who undertook the same process and has now risen to become a Vice President of Design. We follow Mark and Tom, two adult fans of LEGO, as they try two different money-making schemes they hope will transform their love of the brick into hard cash. And there's Roar, the LEGO "reputation manager", who guides us through this secret world - until we get a little too close for comfort."

General
Unique ID
: 241013687998843657855043909550882576950 (0xB5518C415DE3CAABBD52BF7AC1365A36)
Complete name : The.Secret.World.Of.Lego.mkv
Format
: Matroska
Format version : Version 2
File size
: 934 MiB
Duration
: 46mn 30s
Overall bit rate : 2 807 Kbps

Video
ID : 1
Format
: AVC
Format/Info
: Advanced Video Codec
Format profile : [email protected]
Format settings, CABAC : Yes
Format settings, ReFrames : 5 frames
Codec ID
: V_MPEG4/ISO/AVC
Duration
: 46mn 30s
Bit rate
: 2 559 Kbps
Width
: 1 280 pixels
Height
: 720 pixels
Display aspect ratio : 16:9
Frame rate
: 25.000 fps
Color space
: YUV
Chroma subsampling

: 4:2:0
Bit depth
: 8 bits
Scan type
: Progressive
Bits/(Pixel*Frame)

: 0.111
Stream size
: 851 MiB (91%)
Writing library : x264 core 146 r2538 121396c
Encoding settings: cabac=1 / ref=5 / deblock=1:0:0 / analyse=0x3:0x113 / me=umh / subme=8 / psy=1 / psy_rd=1.00:0.00 / mixed_ref=1 / me_range=16 / chroma_me=1 / trellis=1 / 8x8dct=1 / cqm=0 / deadzone=21,11 / fast_pskip=1 / chroma_qp_offset=-2 / threads=12 / lookahead_threads=2 / sliced_threads=0 / nr=0 / decimate=1 / interlaced=0 / bluray_compat=0 / constrained_intra=0 / bframes=3 / b_pyramid=2 / b_adapt=2 / b_bias=0 / direct=3 / weightb=1 / open_gop=0 / weightp=2 / keyint=250 / keyint_min=25 / scenecut=40 / intra_refresh=0 / rc_lookahead=50 / rc=crf / mbtree=1 / crf=20.0 / qcomp=0.60 / qpmin=0 / qpmax=69 / qpstep=4 / vbv_maxrate=62500 / vbv_bufsize=78125 / crf_max=0.0 / nal_hrd=none / filler=0 / ip_ratio=1.40 / aq=1:1.00
Default
: Yes
Forced
: No
Matrix coefficients

: BT.709-5, BT.1361, IEC 61966-2-4 709, SMPTE RP177

Audio
ID : 2
Format
: MPEG Audio
Format version : Version 1
Format profile : Layer 2
Codec ID
: A_MPEG/L2
Codec ID/Hint : MP2
Duration
: 46mn 30s
Bit rate mode : Constant
Bit rate
: 192 Kbps
Channel(s)
: 2 channels
Sampling rate : 48.0 KHz
Compression mode : Lossy
Stream size
: 63.9 MiB (7%)
Default
: Yes
Forced
: No

Screenshots:

http://i71.fastpic.ru/big/2015/0617/0a/1868ea970ea64a916d1fa22c3e34230a.jpg

http://i70.fastpic.ru/big/2015/0617/9e/a715725f9fd5d955c47c39b70e52779e.jpg

http://i70.fastpic.ru/big/2015/0617/18/b2c3c4dcfe9a456fd0b735fd12419a18.jpg


DOWNLOAD LINKS:
Buy Premium To Support Me & Get Resumable Support & Max Speed


Links are Interchangeable - No Password - Single Extraction

Channel 4 - The Secret World of Lego (2015) Fast Download



 
 
 
Dear visitor, you went to the site as an unregistered user. We encourage you to register or enter the site under your name.
 
   
 
 (Votes #: 0)