2013Zone For Latest Downloads

 
     
 
Legal Downloads » Music » Matthias Goerne - Franz Schubert - Wanderers Nachtlied (2014) [2CD] {Harmonia Mundi}
Menu
Home Applications
Games Movies
Music TV Shows
Torrents Graphics

Sitemap

RSS
 
Advanced Search
Last News
Site Info
Top Contributors:
  1    supper88 32766
  2    admin 32671
  3    Whisky 10080
  4    Shark_ 8911
  5    creativelivenew 8706
  6    whathesupa 2799
  7    candymypost 840
  8    hvnteam 629
  9    vuong87 3


Articles:
  This Hour: 0
  Today: 0
  This Month: 58
  All Time: 515616


Torrents:
  Today: 0
  Yesterday: 0
  All Time: 156702


Membership:
  Registered Today :0
  This Hour:0
  This Month:0
  Total:14
  Banned:1

{online}
{inform_torrent}
Friend:
We Recomend
Trend
Trend
Ad1

Search In Site

Music : Matthias Goerne - Franz Schubert - Wanderers Nachtlied (2014) [2CD] {Harmonia Mundi}
 

http://i71.fastpic.ru/big/2015/0618/73/16e470b246c705e541f0a9d81c7a4573.jpg
Matthias Goerne - Franz Schubert - Wanderers Nachtlied (2014) [2CD] {Harmonia Mundi}
EAC rip (secure mode) | FLAC (tracks)+CUE+LOG -> 423 Mb | MP3 @320 -> 326 Mb
Full Artwork @ 300 dpi (jpg) -> 26 Mb | 5% repair rar
© 2014 Harmonia Mundi | HMC 902109.10
Classical / Chamber Music / Vocal / Baritone / Early Romantic / Recital

"Hailed by the Philadelphia Inquirer as, ''The most intellectually and vocally gifted male art-song interpreter of his generation,'' baritone Matthias Goerne presents the eighth volume in his ongoing Matthias Goerne Schubert Edition for harmonia mundi. The featured work is Schubert's setting of Goethe's two-part poem Wanderers Nachtlied. A renowned Schubert interpreter, Goerne is renowned worldwide for his complete commitment to the composer and text. On this new 2-CD set he is joined by two exceptional collaborators, pianists Helmut Deutsch and Eric Schneider."

http://i69.fastpic.ru/big/2015/0618/31/193ac6bd885b0e1720dd8420ce917731.jpg

"Goerne is without doubt one of the greatest baritones of the age. His rich, velvetty tones are unmistakeable. And this CD shows his voice off to its full degree.

But two (minor-ish) quibbles. first the repertoire. Like every other genius, Schubert had his not-so-genius- filled movements. He is never boring; but not always inspiring. So, if you are recording a complete works, where do you put the lesser works? You can do like Boetsch and release a whole record of them, or, better as MG incorporate them among more interesting work. So there' s the occasional dull track, but never a bad one.

It's also interesting to compare him in works he's previously recorded, where he can seem more much more relaxed in his treatment, and accordingly more nuanced.

But my second problem is more serious, and it is the increasingly audible intake of breath (once mid-word!) which becomes distracting. I hope I'm wrong and there'snot an organic problem, where treatment would put the voice at risk. But even if there is, a singer of his skill can always improve technique, and this does need attention.

That said, I'd go anywhere (actually I have, almost) to hear him sing. He is a true maestro."


Prestoclassical INFO

Personnel:
Matthias Goerne (baritone)
Helmut Deutsch (piano - CD 1); Eric Schneider (piano - CD 2)

tracklist:
CD1

01 - An die untergehende Sonne
02 - Der Tod und das Madchen
03 - Die Rose
04 - Erinnerung (Totenopfer)
05 - Litanei
06 - Auf dem Wasser zu singen
07 - Abendbilder
08 - Nach einem Gewitter
09 - Der Zwerg
10 - Im Fruhling
11 - Die Blumensprache
12 - Viola
13 - An die Entfernte
14 - Bei dir allein
15 - Ganymed

http://i72.fastpic.ru/big/2015/0618/f0/b24d51a5a2ff7aa38b0b42863fdd5bf0.jpg


CD2
01 - Wanderers Nachtlied
02 - Schafers Klagelied
03 - Heidenroslein
04 - Rastlose Liebe
05 - An den Mond
06 - Trost in Tranen
07 - Erster Verlust
08 - Der Musensohn
09 - Geheimes
10 - Versunken
11 - An Schwager Kronos
12 - Geisternahe
13 - Das war ich
14 - Das Rosenband
15 - Furcht der Geliebten
16 - An Sie
17 - Die Liebe hat gelogen
18 - Lachen und Weinen
19 - Dass sie hier gewesen
20 - Der Einsame
21 - Die Sterne

http://i69.fastpic.ru/big/2015/0618/83/2447807f6798afc6b99b961a5bdfe783.jpg



Exact Audio Copy V1.0 beta 6 from 9. April 2015

EAC extraction logfile from 26. May 2015, 19:23

Franz Schubert / Wanderers Nachtlied CD1

Used drive : ATAPI iHBS112 2 Adapter: 1 ID: 0

Read mode : Secure
Utilize accurate stream : Yes
Defeat audio cache : Yes
Make use of C2 pointers : No

Read offset correction

: 6
Overread into Lead-In and Lead-Out : No
Fill up missing offset samples with silence : Yes
Delete leading and trailing silent blocks : No
Null samples used in CRC calculations : Yes
Used interface
: Native Win32 interface for Win NT & 2000
Gap handling
: Appended to previous track

Used output format : User Defined Encoder
Selected bitrate : 1024 kBit/s
Quality : High
Add ID3 tag : No
Command line compressor : C:\Program Files\Exact Audio Copy\Flac\flac.exe
Additional command line options : -8 -V -T "ARTIST=%artist%" -T "TITLE=%title%" -T "ALBUM=%albumtitle%" -T "DATE=%year%" -T "TRACKNUMBER=%tracknr%" -T "TOTALTRACKS=%numtracks%" -T "GENRE=%genre%" -T "ALBUMARTIST=%albumartist%" -T "ALBUM ARTIST=%albumartist%" -T "COMPOSER=%composer%" -T "PERFORMER=%albuminterpret%" -T "DISCNUMBER=%cdnumber%" -T "TOTALDISCS=%totalcds%" -T "COMMENT=EAC Secure Mode, Test & Copy, AccurateRip, FLAC -8" %source%

TOC of the extracted CD Track | Start | Length | Start sector | End sector
1 | 0:00.00 | 6:38.48 | 0 | 29897 2 | 6:38.48 | 2:24.23 | 29898 | 40720 3 | 9:02.71 | 3:11.39 | 40721 | 55084 4 | 12:14.35 | 2:17.61 | 55085 | 65420 5 | 14:32.21 | 7:54.28 | 65421 | 100998 6 | 22:26.49 | 3:52.15 | 100999 | 118413 7 | 26:18.64 | 5:20.64 | 118414 | 142477 8 | 31:39.53 | 2:10.25 | 142478 | 152252 9 | 33:50.03 | 5:29.17 | 152253 | 176944
10 | 39:19.20 | 4:17.42 | 176945 | 196261
11 | 43:36.62 | 2:05.18 | 196262 | 205654
12 | 45:42.05 | 13:34.14 | 205655 | 266718
13 | 59:16.19 | 2:52.67 | 266719 | 279685
14 | 62:09.11 | 2:04.25 | 279686 | 289010
15 | 64:13.36 | 4:21.20 | 289011 | 308605

Track 1 Filename P:\DL\Franz Schubert - Wanderers Nachtlied CD1 (2014) [FLAC]\01 - An die untergehende Sonne.wav Pre-gap length 0:00:02.00 Peak level 43.7 %
Extraction speed 2.4 X
Track quality 100.0 %
Test CRC D2EE15DD
Copy CRC D2EE15DD
Accurately ripped (confidence 7) [5FC3C4DD] (AR v2)
Copy OK

Track 2 Filename P:\DL\Franz Schubert - Wanderers Nachtlied CD1 (2014) [FLAC]\02 - Der Tod und das Madchen.wav Peak level 41.0 %
Extraction speed 2.3 X
Track quality 100.0 %
Test CRC 0AF935A0
Copy CRC 0AF935A0
Accurately ripped (confidence 7) [13C25822] (AR v2)
Copy OK

Track 3 Filename P:\DL\Franz Schubert - Wanderers Nachtlied CD1 (2014) [FLAC]\03 - Die Rose.wav Peak level 54.7 %
Extraction speed 2.6 X
Track quality 100.0 %
Test CRC 505D4E60
Copy CRC 505D4E60
Accurately ripped (confidence 6) [65D4AB0C] (AR v2)
Copy OK

Track 4 Filename P:\DL\Franz Schubert - Wanderers Nachtlied CD1 (2014) [FLAC]\04 - Erinnerung (Totenopfer).wav Peak level 52.9 %
Extraction speed 2.5 X
Track quality 100.0 %
Test CRC CD39E0C7
Copy CRC CD39E0C7
Accurately ripped (confidence 6) [F0EF4DFC] (AR v2)
Copy OK

Track 5 Filename P:\DL\Franz Schubert - Wanderers Nachtlied CD1 (2014) [FLAC]\05 - Litanei.wav Peak level 12.9 %
Extraction speed 3.2 X
Track quality 100.0 %
Test CRC 78CBDCBC
Copy CRC 78CBDCBC
Accurately ripped (confidence 7) [EF4F7564] (AR v2)
Copy OK

Track 6 Filename P:\DL\Franz Schubert - Wanderers Nachtlied CD1 (2014) [FLAC]\06 - Auf dem Wasser zu singen.wav Peak level 48.9 %
Extraction speed 3.2 X
Track quality 100.0 %
Test CRC 04B4319B
Copy CRC 04B4319B
Accurately ripped (confidence 6) [651EDE18] (AR v2)
Copy OK

Track 7 Filename P:\DL\Franz Schubert - Wanderers Nachtlied CD1 (2014) [FLAC]\07 - Abendbilder.wav Peak level 83.8 %
Extraction speed 3.5 X
Track quality 100.0 %
Test CRC EBA65E7B
Copy CRC EBA65E7B
Accurately ripped (confidence 6) [C8BB4388] (AR v2)
Copy OK

Track 8 Filename P:\DL\Franz Schubert - Wanderers Nachtlied CD1 (2014) [FLAC]\08 - Nach einem Gewitter.wav Peak level 55.2 %
Extraction speed 3.1 X
Track quality 100.0 %
Test CRC 2CEB7312
Copy CRC 2CEB7312
Accurately ripped (confidence 6) [507329C5] (AR v2)
Copy OK

Track 9 Filename P:\DL\Franz Schubert - Wanderers Nachtlied CD1 (2014) [FLAC]\09 - Der Zwerg.wav Peak level 96.7 %
Extraction speed 3.7 X
Track quality 100.0 %
Test CRC 25D478F1
Copy CRC 25D478F1
Accurately ripped (confidence 6) [FB3BB937] (AR v2)
Copy OK

Track 10 Filename P:\DL\Franz Schubert - Wanderers Nachtlied CD1 (2014) [FLAC]\10 - Im Fruhling.wav Peak level 63.7 %
Extraction speed 3.8 X
Track quality 100.0 %
Test CRC CC2B3E72
Copy CRC CC2B3E72
Accurately ripped (confidence 6) [84107A0E] (AR v2)
Copy OK

Track 11 Filename P:\DL\Franz Schubert - Wanderers Nachtlied CD1 (2014) [FLAC]\11 - Die Blumensprache.wav Peak level 54.1 %
Extraction speed 3.4 X
Track quality 100.0 %
Test CRC 167B3E27
Copy CRC 167B3E27
Accurately ripped (confidence 6) [75CBD849] (AR v2)
Copy OK

Track 12 Filename P:\DL\Franz Schubert - Wanderers Nachtlied CD1 (2014) [FLAC]\12 - Viola.wav Peak level 94.2 %
Extraction speed 4.5 X
Track quality 100.0 %
Test CRC C6713A6F
Copy CRC C6713A6F
Accurately ripped (confidence 6) [E5F0CB48] (AR v2)
Copy OK

Track 13 Filename P:\DL\Franz Schubert - Wanderers Nachtlied CD1 (2014) [FLAC]\13 - An die Entfernte.wav Peak level 96.6 %
Extraction speed 4.1 X
Track quality 100.0 %
Test CRC D29A267F
Copy CRC D29A267F
Accurately ripped (confidence 6) [1F0BD410] (AR v2)
Copy OK

Track 14 Filename P:\DL\Franz Schubert - Wanderers Nachtlied CD1 (2014) [FLAC]\14 - Bei dir allein.wav Peak level 58.6 %
Extraction speed 3.8 X
Track quality 100.0 %
Test CRC AEABE13C
Copy CRC AEABE13C
Accurately ripped (confidence 6) [4276B7E6] (AR v2)
Copy OK

Track 15 Filename P:\DL\Franz Schubert - Wanderers Nachtlied CD1 (2014) [FLAC]\15 - Ganymed.wav Peak level 92.5 %
Extraction speed 3.4 X
Track quality 99.9 %
Test CRC B7C5BA03
Copy CRC B7C5BA03
Accurately ripped (confidence 6) [5D33E9CC] (AR v2)
Copy OK

All tracks accurately ripped

No errors occurred

End of status report

---- CUETools DB Plugin V2.1.6

[CTDB TOCID: XJ4uWkxOBE82hwDTyHRUNM.j4b8-] found
Submit result:
Track | CTDB Status
1 | (7/7) Accurately ripped
2 | (7/7) Accurately ripped
3 | (7/7) Accurately ripped
4 | (7/7) Accurately ripped
5 | (7/7) Accurately ripped
6 | (7/7) Accurately ripped
7 | (7/7) Accurately ripped
8 | (7/7) Accurately ripped
9 | (7/7) Accurately ripped
10 | (7/7) Accurately ripped
11 | (7/7) Accurately ripped
12 | (7/7) Accurately ripped
13 | (7/7) Accurately ripped
14 | (7/7) Accurately ripped
15 | (7/7) Accurately ripped

==== Log checksum 350254099219FC0A3BF814A39C653C919019077371EFC28472B175E5E4FBEE14 ====

Exact Audio Copy V1.0 beta 6 from 9. April 2015

EAC extraction logfile from 26. May 2015, 20:37

Franz Schubert / Wanderers Nachtlied CD2

Used drive : ATAPI iHBS112 2 Adapter: 1 ID: 0

Read mode : Secure
Utilize accurate stream : Yes
Defeat audio cache : Yes
Make use of C2 pointers : No

Read offset correction

: 6
Overread into Lead-In and Lead-Out : No
Fill up missing offset samples with silence : Yes
Delete leading and trailing silent blocks : No
Null samples used in CRC calculations : Yes
Used interface
: Native Win32 interface for Win NT & 2000
Gap handling
: Appended to previous track

Used output format : User Defined Encoder
Selected bitrate : 1024 kBit/s
Quality : High
Add ID3 tag : No
Command line compressor : C:\Program Files\Exact Audio Copy\Flac\flac.exe
Additional command line options : -8 -V -T "ARTIST=%artist%" -T "TITLE=%title%" -T "ALBUM=%albumtitle%" -T "DATE=%year%" -T "TRACKNUMBER=%tracknr%" -T "TOTALTRACKS=%numtracks%" -T "GENRE=%genre%" -T "ALBUMARTIST=%albumartist%" -T "ALBUM ARTIST=%albumartist%" -T "COMPOSER=%composer%" -T "PERFORMER=%albuminterpret%" -T "DISCNUMBER=%cdnumber%" -T "TOTALDISCS=%totalcds%" -T "COMMENT=EAC Secure Mode, Test & Copy, AccurateRip, FLAC -8" %source%

TOC of the extracted CD Track | Start | Length | Start sector | End sector
1 | 0:00.00 | 2:26.11 | 0 | 10960 2 | 2:26.11 | 3:55.65 | 10961 | 28650 3 | 6:22.01 | 1:55.71 | 28651 | 37346 4 | 8:17.72 | 1:18.43 | 37347 | 43239 5 | 9:36.40 | 5:55.22 | 43240 | 69886 6 | 15:31.62 | 4:11.34 | 69887 | 88745 7 | 19:43.21 | 2:12.59 | 88746 | 98704 8 | 21:56.05 | 1:58.51 | 98705 | 107605 9 | 23:54.56 | 1:43.68 | 107606 | 115398
10 | 25:38.49 | 2:01.41 | 115399 | 124514
11 | 27:40.15 | 2:53.63 | 124515 | 137552
12 | 30:34.03 | 4:27.51 | 137553 | 157628
13 | 35:01.54 | 2:50.06 | 157629 | 170384
14 | 37:51.60 | 1:40.29 | 170385 | 177913
15 | 39:32.14 | 1:58.69 | 177914 | 186832
16 | 41:31.08 | 2:41.73 | 186833 | 198980
17 | 44:13.06 | 2:32.70 | 198981 | 210450
18 | 46:46.01 | 1:46.24 | 210451 | 218424
19 | 48:32.25 | 3:51.44 | 218425 | 235793
20 | 52:23.69 | 4:09.53 | 235794 | 254521
21 | 56:33.47 | 5:15.63 | 254522 | 278209

Track 1 Filename P:\DL\Franz Schubert - Wanderers Nachtlied CD2 (2014) [FLAC]\01 - Wanderers Nachtlied.wav Pre-gap length 0:00:02.00 Peak level 17.8 %
Extraction speed 4.5 X
Track quality 100.0 %
Test CRC B3B59490
Copy CRC B3B59490
Accurately ripped (confidence 7) [66BDB2AD] (AR v2)
Copy OK

Track 2 Filename P:\DL\Franz Schubert - Wanderers Nachtlied CD2 (2014) [FLAC]\02 - Schafers Klagelied.wav Peak level 94.9 %
Extraction speed 5.3 X
Track quality 100.0 %
Test CRC 77955353
Copy CRC 77955353
Accurately ripped (confidence 6) [0AA51170] (AR v2)
Copy OK

Track 3 Filename P:\DL\Franz Schubert - Wanderers Nachtlied CD2 (2014) [FLAC]\03 - Heidenroslein.wav Peak level 74.1 %
Extraction speed 4.9 X
Track quality 100.0 %
Test CRC 9A0013DC
Copy CRC 9A0013DC
Accurately ripped (confidence 7) [7551429E] (AR v2)
Copy OK

Track 4 Filename P:\DL\Franz Schubert - Wanderers Nachtlied CD2 (2014) [FLAC]\04 - Rastlose Liebe.wav Peak level 96.6 %
Extraction speed 4.6 X
Track quality 100.0 %
Test CRC DD6F7C02
Copy CRC DD6F7C02
Accurately ripped (confidence 6) [F39BF955] (AR v2)
Copy OK

Track 5 Filename P:\DL\Franz Schubert - Wanderers Nachtlied CD2 (2014) [FLAC]\05 - An den Mond.wav Peak level 68.8 %
Extraction speed 6.5 X
Track quality 100.0 %
Test CRC AE9C653C
Copy CRC AE9C653C
Accurately ripped (confidence 7) [7D4974EC] (AR v2)
Copy OK

Track 6 Filename P:\DL\Franz Schubert - Wanderers Nachtlied CD2 (2014) [FLAC]\06 - Trost in Tranen.wav Peak level 28.8 %
Extraction speed 6.8 X
Track quality 100.0 %
Test CRC 00E9294F
Copy CRC 00E9294F
Accurately ripped (confidence 6) [49CCADE7] (AR v2)
Copy OK

Track 7 Filename P:\DL\Franz Schubert - Wanderers Nachtlied CD2 (2014) [FLAC]\07 - Erster Verlust.wav Peak level 26.3 %
Extraction speed 4.9 X
Track quality 99.9 %
Test CRC 375964BC
Copy CRC 375964BC
Accurately ripped (confidence 6) [57AFB4EF] (AR v2)
Copy OK

Track 8 Filename P:\DL\Franz Schubert - Wanderers Nachtlied CD2 (2014) [FLAC]\08 - Der Musensohn.wav Peak level 73.4 %
Extraction speed 6.4 X
Track quality 100.0 %
Test CRC 022F5D81
Copy CRC 022F5D81
Accurately ripped (confidence 6) [F12B8DE5] (AR v2)
Copy OK

Track 9 Filename P:\DL\Franz Schubert - Wanderers Nachtlied CD2 (2014) [FLAC]\09 - Geheimes.wav Peak level 41.1 %
Extraction speed 4.5 X
Track quality 99.8 %
Test CRC 8A2C031A
Copy CRC 8A2C031A
Accurately ripped (confidence 6) [EF9C6C0E] (AR v2)
Copy OK

Track 10 Filename P:\DL\Franz Schubert - Wanderers Nachtlied CD2 (2014) [FLAC]\10 - Versunken.wav Peak level 93.3 %
Extraction speed 6.6 X
Track quality 100.0 %
Test CRC B32F7DCC
Copy CRC B32F7DCC
Accurately ripped (confidence 5) [61ED3C45] (AR v2)
Copy OK

Track 11 Filename P:\DL\Franz Schubert - Wanderers Nachtlied CD2 (2014) [FLAC]\11 - An Schwager Kronos.wav Peak level 96.7 %
Extraction speed 7.3 X
Track quality 100.0 %
Test CRC 0C139DCA
Copy CRC 0C139DCA
Accurately ripped (confidence 6) [DD36EA9C] (AR v2)
Copy OK

Track 12 Filename P:\DL\Franz Schubert - Wanderers Nachtlied CD2 (2014) [FLAC]\12 - Geisternahe.wav Peak level 42.3 %
Extraction speed 8.1 X
Track quality 100.0 %
Test CRC CFD4D46E
Copy CRC CFD4D46E
Accurately ripped (confidence 6) [ADFE5C92] (AR v2)
Copy OK

Track 13 Filename P:\DL\Franz Schubert - Wanderers Nachtlied CD2 (2014) [FLAC]\13 - Das war ich.wav Peak level 60.7 %
Extraction speed 7.8 X
Track quality 100.0 %
Test CRC BF590067
Copy CRC BF590067
Accurately ripped (confidence 6) [8190DF36] (AR v2)
Copy OK

Track 14 Filename P:\DL\Franz Schubert - Wanderers Nachtlied CD2 (2014) [FLAC]\14 - Das Rosenband.wav Peak level 53.1 %
Extraction speed 7.1 X
Track quality 100.0 %
Test CRC 5985BEC9
Copy CRC 5985BEC9
Accurately ripped (confidence 6) 47F309F (AR v2)
Copy OK

Track 15 Filename P:\DL\Franz Schubert - Wanderers Nachtlied CD2 (2014) [FLAC]\15 - Furcht der Geliebten.wav Peak level 31.5 %
Extraction speed 7.6 X
Track quality 100.0 %
Test CRC 5742A46F
Copy CRC 5742A46F
Accurately ripped (confidence 6) [FE371286] (AR v2)
Copy OK

Track 16 Filename P:\DL\Franz Schubert - Wanderers Nachtlied CD2 (2014) [FLAC]\16 - An Sie.wav Peak level 52.9 %
Extraction speed 6.4 X
Track quality 99.9 %
Test CRC 5F6CF709
Copy CRC 5F6CF709
Accurately ripped (confidence 6) [81BE9D85] (AR v2)
Copy OK

Track 17 Filename P:\DL\Franz Schubert - Wanderers Nachtlied CD2 (2014) [FLAC]\17 - Die Liebe hat gelogen.wav Peak level 96.6 %
Extraction speed 8.2 X
Track quality 100.0 %
Test CRC 2F9E43A6
Copy CRC 2F9E43A6
Accurately ripped (confidence 6) [98504CB6] (AR v2)
Copy OK

Track 18 Filename P:\DL\Franz Schubert - Wanderers Nachtlied CD2 (2014) [FLAC]\18 - Lachen und Weinen.wav Peak level 49.9 %
Extraction speed 7.7 X
Track quality 100.0 %
Test CRC F1023935
Copy CRC F1023935
Accurately ripped (confidence 6) [474FF5B8] (AR v2)
Copy OK

Track 19 Filename P:\DL\Franz Schubert - Wanderers Nachtlied CD2 (2014) [FLAC]\19 - Dass sie hier gewesen.wav Peak level 35.7 %
Extraction speed 9.1 X
Track quality 100.0 %
Test CRC 1DB81093
Copy CRC 1DB81093
Accurately ripped (confidence 7) [09576F08] (AR v2)
Copy OK

Track 20 Filename P:\DL\Franz Schubert - Wanderers Nachtlied CD2 (2014) [FLAC]\20 - Der Einsame.wav Peak level 43.9 %
Extraction speed 9.4 X
Track quality 100.0 %
Test CRC C88DAAD2
Copy CRC C88DAAD2
Accurately ripped (confidence 7) [413F9685] (AR v2)
Copy OK

Track 21 Filename P:\DL\Franz Schubert - Wanderers Nachtlied CD2 (2014) [FLAC]\21 - Die Sterne.wav Peak level 27.4 %
Extraction speed 9.9 X
Track quality 100.0 %
Test CRC 422D0E62
Copy CRC 422D0E62
Accurately ripped (confidence 6) [F6F146F7] (AR v2)
Copy OK

All tracks accurately ripped

No errors occurred

End of status report

---- CUETools DB Plugin V2.1.6

[CTDB TOCID: i6swywtkdqHZJBYyO.KVJQvzrTU-] found
Submit result:
Track | CTDB Status
1 | (7/7) Accurately ripped
2 | (7/7) Accurately ripped
3 | (7/7) Accurately ripped
4 | (7/7) Accurately ripped
5 | (7/7) Accurately ripped
6 | (7/7) Accurately ripped
7 | (7/7) Accurately ripped
8 | (7/7) Accurately ripped
9 | (7/7) Accurately ripped
10 | (6/7) Accurately ripped
11 | (7/7) Accurately ripped
12 | (7/7) Accurately ripped
13 | (7/7) Accurately ripped
14 | (7/7) Accurately ripped
15 | (7/7) Accurately ripped
16 | (7/7) Accurately ripped
17 | (7/7) Accurately ripped
18 | (7/7) Accurately ripped
19 | (7/7) Accurately ripped
20 | (7/7) Accurately ripped
21 | (7/7) Accurately ripped

==== Log checksum 060750D2452D9DF7DFC1B47175A15F368F032251B35777FECFEFAA6C93667630 ====

http://i70.fastpic.ru/big/2015/0618/28/79c8192ba77b116df756042a28224d28.jpg

DOWNLOAD LINKS:
Buy Premium To Support Me & Get Resumable Support & Max Speed


Links are Interchangeable - No Password - Single Extraction

Matthias Goerne - Franz Schubert - Wanderers Nachtlied (2014) [2CD] {Harmonia Mundi} Fast Download


Ad2

 
 
 
Dear visitor, you went to the site as an unregistered user. We encourage you to register or enter the site under your name.
 
   
 
 (Votes #: 0)