2013Zone For Latest Downloads

 
     
 
Legal Downloads » Music » Martin Rev - Clouds of Glory (1985)
Menu
Home Applications
Games Movies
Music TV Shows
Torrents Graphics

Sitemap

RSS
 
Advanced Search
Last News
Site Info
Top Contributors:
  1    supper88 32766
  2    admin 32693
  3    Whisky 10080
  4    Shark_ 8911
  5    creativelivenew 8706
  6    whathesupa 2799
  7    candymypost 840
  8    hvnteam 629
  9    vuong87 3


Articles:
  This Hour: 0
  Today: 0
  This Month: 10
  All Time: 515561


Torrents:
  Today: 0
  Yesterday: 0
  All Time: 156684


Membership:
  Registered Today :0
  This Hour:0
  This Month:0
  Total:14
  Banned:1

{online}
{inform_torrent}
Friend:
We Recomend
Trend
Trend
Ad1

Search In Site

Music : Martin Rev - Clouds of Glory (1985)
 
http://i70.fastpic.ru/big/2015/0618/8f/ef42273a9f10b438a67eb6ba0cec008f.jpg

Martin Rev - Clouds of Glory (1985)
Electronic | 1cd | EAC Rip | Flac + Cue + Log | covers
Mau Mau, MAUCD 648 | rem: 1996 | 275Mb

Martin Rev was one half of bizarro-world greats Suicide. Clouds of Glory, his second solo album, consists of endlessly repeated melodic mantras, shrill sustained tones, and chaotic SFX, all (I believe) courtesy of synthesizer(s). It's like someone took an unreleased Suicide record, removed the vocal tracks, and replaced them with synth oscillations, chirps, drones, and explosions.
Track listing
01. Rodeo (6:31)
02. Clouds of glory (6:24)
03. Metatron (6:15)
04. Whisper (3:18)
05. Rocking horse (5:38)
06. Parade (6:29)
07. Island (6:25)
~ (41:00)

Exact Audio Copy V0.99 prebeta 3 from 28. July 2007

EAC extraction logfile from 30. May 2010, 2:27

Martin Rev / Clouds of glory

Used drive : _NEC DVD_RW ND-2510A Adapter: 1 ID: 0

Read mode : Secure
Utilize accurate stream : Yes
Defeat audio cache : Yes
Make use of C2 pointers : No

Read offset correction

: 48
Overread into Lead-In and Lead-Out : No
Fill up missing offset samples with silence : Yes
Delete leading and trailing silent blocks : No
Null samples used in CRC calculations : Yes
Used interface
: Native Win32 interface for Win NT & 2000

Used output format : User Defined Encoder
Selected bitrate : 1024 kBit/s
Quality : High
Add ID3 tag : No
Command line compressor : C:\Program Files\Exact Audio Copy\Flac\flac.exe
Additional command line options : -8 -V %s

TOC of the extracted CD Track | Start | Length | Start sector | End sector
1 | 0:00.00 | 6:31.32 | 0 | 29356 2 | 6:31.32 | 6:23.48 | 29357 | 58129 3 | 12:55.05 | 6:14.60 | 58130 | 86239 4 | 19:09.65 | 3:18.02 | 86240 | 101091 5 | 22:27.67 | 5:38.18 | 101092 | 126459 6 | 28:06.10 | 6:28.40 | 126460 | 155599 7 | 34:34.50 | 6:24.65 | 155600 | 184464

Range status and errors

Selected range Filename I:\Раздача музыки Torrents\Rev, Martin\Clouds of Glory (1996)\Новая папка\Martin Rev - Clouds of glory.wav Peak level 99.9 %
Range quality 100.0 %
Test CRC 82C7D85F
Copy CRC 82C7D85F
Copy OK

No errors occurred


AccurateRip summary

Track 1 not present in database
Track 2 not present in database
Track 3 not present in database
Track 4 not present in database
Track 5 not present in database
Track 6 not present in database
Track 7 not present in database

None of the tracks are present in the AccurateRip database

End of status report

[CUETools log; Date: 2015.06.16. 11:13:25; Version: 2.1.5]
[CTDB TOCID: YRM6L7P3pdUWCcZdZRORDBfMXUk-] found.
Track | CTDB Status
1 | (1/1) Accurately ripped
2 | (1/1) Accurately ripped
3 | (1/1) Accurately ripped
4 | (1/1) Accurately ripped
5 | (1/1) Accurately ripped
6 | (1/1) Accurately ripped
7 | (1/1) Accurately ripped
[AccurateRip ID: 000b4fe0-00433fa5-65099b07] disk not present in database.

Track Peak [ CRC32 ] [W/O NULL] [ LOG ]
-- 99,9 [82C7D85F] [99C55F44] CRC32
01 99,9 [AEC5345F] [052322A7]
02 91,5 [DCB2E2EF] [D601CD05]
03 78,5 [15BABF58] [F35FBD40]
04 94,4 [5C872E06] [39F36C1E]
05 90,1 E2E2217 775A18A
06 95,3 [A15D4919] [6C4C8A13]
07 98,5 [09C1D077] [8B7CE153]

Thx to glebchic
DOWNLOAD LINKS:
Buy Premium To Support Me & Get Resumable Support & Max Speed


Links are Interchangeable - No Password - Single Extraction

Martin Rev - Clouds of Glory (1985) Fast Download


Ad2

 
 
 
Dear visitor, you went to the site as an unregistered user. We encourage you to register or enter the site under your name.
 
   
 
 (Votes #: 0)