2013Zone For Latest Downloads

 
     
 
Legal Downloads » Music » Jimmy Page / VA - Before The Balloon Went Up / Led Zeppelin Tribute - Whole Lotta Led (1998)
Menu
Home Applications
Games Movies
Music TV Shows
Torrents Graphics

Sitemap

RSS
 
Advanced Search
Last News
Site Info
Top Contributors:
  1    supper88 32766
  2    admin 32711
  3    Whisky 10080
  4    Shark_ 8911
  5    creativelivenew 8706
  6    whathesupa 2799
  7    candymypost 840
  8    hvnteam 629
  9    vuong87 3


Articles:
  This Hour: 0
  Today: 0
  This Month: 0
  All Time: 515501


Torrents:
  Today: 0
  Yesterday: 0
  All Time: 156676


Membership:
  Registered Today :0
  This Hour:0
  This Month:0
  Total:14
  Banned:1

{online}
{inform_torrent}
Friend:
Full Download Scripts
Torrent Download
Trend
Trend

Search In Site

Music : Jimmy Page / VA - Before The Balloon Went Up / Led Zeppelin Tribute - Whole Lotta Led (1998)
 
http://i69.fastpic.ru/big/2015/0618/37/7a6fbcc6e324469d609e10e88c4afa37.jpg

Jimmy Page / VA - Before The Balloon Went Up / Led Zeppelin Tribute - Whole Lotta Led (1998)
EAC | Flac(Image) + Cue + Log & MP3 CBR 320Kbps
2CD | Dressed To Kill | ~ 545 or 215 Mb | Scans Included
Classic Rock / Blues Rock / Hard Rock

"Dressed to Kill's shady Before the Balloon Went Up compilation collects 15 tracks from Jimmy Page's early days as a session guitarist, all of which and more can be found on Castle's superior Hip Young Guitar Slinger & His Heavy Friends and This Guitar Kills: More 60s Groups & Sessions anthologies. The second disc features mediocre covers of classic Led Zeppelin tracks by a host of unknowns.


by James Christopher Monger, AMG

dics 1 is jmmy page ,john paul jones nikey hopkins albert lee. all where brought into help give the singer a sound the that would help launch keiths carrer .it floped.but if you listen to it you will really enjoy it .i find this cd to be one of jimmys best pre zepplin albums. if you like jimmy page youl like this also you can findit under two differnt titles the 1st no intreduction nessacery. the 2nd the masters with jimmy page.


By ROBALBURY, amazon
"



Tracklist CD1 - Jimmy Page - Before The Balloon Went Up:

01. Lovin'up a storm 2:11
02. Everything I do is wrong 2:52
03. Think it over 2:31
04. Boll weevil song 2:06
05. Livin' lovin wreck 2:11
06. One long kiss 9:46
07. Dixie fried 2:23
08. Down the line 2:19
09. Fabulous 2:39
10. Breathless 2:06
11. Rave on 2:23
12. Lonely weekend 5:48
13. Burn up 2:30
14. Everyday

Exact Audio Copy V0.99 prebeta 4 from 23. January 2008

Отчёт EAC об извлечении, выполненном 18. января 2011, 13:58

Jimmy Page / Before the balloon went up

Дисковод: _NEC DVD_RW ND-3540A Adapter: 5 ID: 0

Режим чтения : Достоверность
?спользование точного потока : Да
Отключение кэ?а аудио : Да
?спользование указателей C2 : Нет

Коррекция смещения при чтении : 48
Способность читать области Lead-in и Lead-out : Нет
Заполнение пропущенных сэмплов ти?иной : Да
Удаление блоков с ти?иной в начале и конце : Нет
При вычислениях CRC использовались нулевые сэмплы : Нет
?нтерфейс : Установленный вне?ний ASPI-интерфейс

Выходной формат : Monkey's Audio Lossless Encoder v3.99 DLL
Формат сэмплов : High Lossless Compression

TOC извлечённого CD Трек | Старт | Длительность | Начальный сектор | Конечный сектор

1 | 0:00.00 | 2:11.10 | 0 | 9834
2 | 2:11.10 | 2:52.49 | 9835 | 22783
3 | 5:03.59 | 2:31.65 | 22784 | 34173
4 | 7:35.49 | 2:06.49 | 34174 | 43672
5 | 9:42.23 | 2:11.27 | 43673 | 53524
6 | 11:53.50 | 9:46.02 | 53525 | 97476
7 | 21:39.52 | 2:23.20 | 97477 | 108221
8 | 24:02.72 | 2:19.12 | 108222 | 118658
9 | 26:22.09 | 2:23.07 | 118659 | 129390
10 | 28:45.16 | 2:39.04 | 129391 | 141319
11 | 31:24.20 | 2:06.52 | 141320 | 150821
12 | 33:30.72 | 2:23.10 | 150822 | 161556
13 | 35:54.07 | 5:48.32 | 161557 | 187688
14 | 41:42.39 | 2:30.12 | 187689 | 198950

Характеристики диапазона извлечения и сообщения об о?ибках

Выбранный диапазон ?мя файла D:\Music\TORRENT\загрузки\JimmyPage_1998\Jimmy Page - Before the balloon went up.ape Пиковый уровень 98.5 %
Качество диапазона 100.0 %
CRC копии B71B5961
Копирование... OK

О?ибок не произо?ло


AccurateRip: сводка

Трек 1 нет в базе данных
Трек 2 нет в базе данных
Трек 3 нет в базе данных
Трек 4 нет в базе данных
Трек 5 нет в базе данных
Трек 6 нет в базе данных
Трек 7 нет в базе данных
Трек 8 нет в базе данных
Трек 9 нет в базе данных
Трек 10 нет в базе данных
Трек 11 нет в базе данных
Трек 12 нет в базе данных
Трек 13 нет в базе данных
Трек 14 нет в базе данных

Ни одного трека нет в базе AccurateRip

Конец отчёта

foobar2000 1.2.9 / Dynamic Range Meter 1.1.1
log date: 2015-06-16 11:32:53

------
Analyzed: Jimmy Page / Before the balloon went up
------

DR Peak RMS Duration Track
------
DR10 -2.81 dB -15.26 dB 2:11 01-Lovin' Up a Storm
DR12 -1.37 dB -16.08 dB 2:53 02-Everything I Do is Wrong
DR12 -1.18 dB -16.56 dB 2:32 03-Think It Over
DR11 -1.64 dB -15.71 dB 2:07 04-Boll Weevil Songs
DR10 -1.35 dB -13.61 dB 2:11 05-Livin' Lovin' Wreck
DR12 -1.09 dB -15.19 dB 9:46 06-One Long Kiss
DR11 -1.76 dB -15.70 dB 2:23 07-Dixie Fried
DR11 -2.46 dB -15.04 dB 2:19 08-Down the Line
DR12 -1.30 dB -16.05 dB 2:23 09-Fabulous
DR11 -1.64 dB -15.30 dB 2:39 10-Breathless
DR12 -0.12 dB -12.94 dB 2:07 11-Rave on
DR12 -2.12 dB -17.52 dB 2:23 12-Lonely Weekend
DR11 -0.95 dB -15.83 dB 5:48 13-Burn Up
DR10 -4.71 dB -16.57 dB 2:30 14-Everyday
------

Number of tracks: 14
Official DR value: DR11

Samplerate: 44100 Hz
Channels: 2
Bits per sample: 16
Bitrate: 790 kbps
Codec: FLAC

[CUETools log; Date: 16.06.2015 11:33:26; Version: 2.1.4]
[CTDB TOCID: krV3857e_GI7Zh5FY36W5tX70CI-] disk not present in database.
[AccurateRip ID: 00163f9f-00f05646-a90a5c0e] disk not present in database.

Track Peak [ CRC32 ] [W/O NULL] [ LOG ]
-- 98,5 [20EE2926] 71B5961 W/O NULL
01 72,3 [DB73D1F8] [54D9EB2B]
02 85,3 [3B316310] [0B2A8C23]
03 87,2 [A83B0255] [8637B4BD]
04 82,7 [0E098CDE] 8EF39C7
05 85,6 [279F6D33] [C655DFB5]
06 88,1 [14E2FA39] [D264CEFD]
07 81,6 [C5A8A3E3] [E100B331]
08 75,3 [324D7E07] [65CC9582]
09 86,1 [0D4E01DE] [4ADCE460]
10 82,7 [2BD49002] [115C6C34]
11 98,5 [FB94BEF7] [440A43BC]
12 78,3 [236E4801] [A952D16F]
13 89,6 [0BCBE718] [158DBFB5]
14 58,1 [5DE1A28A] [3181F01B]

http://i69.fastpic.ru/big/2015/0618/66/9c4bfb907480bda24386ca3570b69466.jpg

Tracklist CD2 - VA - Led Zeppelin Tribute - Whole Lotta Led:

01. Whole lotta love [Selfish Gene] 4:10
02. Babe I'm gonna leave you [Chapter Eleven ] 4:43
03. Battle of evermore [Kyle And Vee] 4:07
04. Stairway to heaven [Johnny Bic] 7:11
05. Friends [Pain Killer] 2:59
06. Inmigrant's song [Paper Parrot] 2:35
07. Brony' aur [Top Banana] 1:55
08. Heartbreaker [Spike (Quireboys)] 4:46
09. Kashmir [The Children] 7:19
10. In my time of dying [Lydia Lunch] 5:37

Exact Audio Copy V0.99 prebeta 4 from 23. January 2008

Отчёт EAC об извлечении, выполненном 18. января 2011, 14:12

Vatious / Whole Lotta Led - Led Zeppelin Tribute

Дисковод: _NEC DVD_RW ND-3540A Adapter: 5 ID: 0

Режим чтения : Достоверность
?спользование точного потока : Да
Отключение кэ?а аудио : Да
?спользование указателей C2 : Нет

Коррекция смещения при чтении : 48
Способность читать области Lead-in и Lead-out : Нет
Заполнение пропущенных сэмплов ти?иной : Да
Удаление блоков с ти?иной в начале и конце : Нет
При вычислениях CRC использовались нулевые сэмплы : Нет
?нтерфейс : Установленный вне?ний ASPI-интерфейс

Выходной формат : Monkey's Audio Lossless Encoder v3.99 DLL
Формат сэмплов : High Lossless Compression

TOC извлечённого CD Трек | Старт | Длительность | Начальный сектор | Конечный сектор

1 | 0:00.00 | 4:10.06 | 0 | 18755
2 | 4:10.06 | 4:43.53 | 18756 | 40033
3 | 8:53.59 | 4:07.46 | 40034 | 58604
4 | 13:01.30 | 7:11.50 | 58605 | 90979
5 | 20:13.05 | 2:59.70 | 90980 | 104474
6 | 23:13.00 | 2:35.74 | 104475 | 116173
7 | 25:48.74 | 1:55.28 | 116174 | 124826
8 | 27:44.27 | 4:46.42 | 124827 | 146318
9 | 32:30.69 | 7:19.66 | 146319 | 179309
10 | 39:50.60 | 5:37.18 | 179310 | 204602

Характеристики диапазона извлечения и сообщения об о?ибках

Выбранный диапазон ?мя файла D:\Music\TORRENT\загрузки\JimmyPage_1998\Vatious - Whole Lotta Led - Led Zeppelin Tribute.ape Пиковый уровень 100.0 %
Качество диапазона 100.0 %
CRC копии ACDB423C
Копирование... OK

О?ибок не произо?ло


AccurateRip: сводка

Трек 1 нет в базе данных
Трек 2 нет в базе данных
Трек 3 нет в базе данных
Трек 4 нет в базе данных
Трек 5 нет в базе данных
Трек 6 нет в базе данных
Трек 7 нет в базе данных
Трек 8 нет в базе данных
Трек 9 нет в базе данных
Трек 10 нет в базе данных

Ни одного трека нет в базе AccurateRip

Конец отчёта

foobar2000 1.2.9 / Dynamic Range Meter 1.1.1
log date: 2015-06-16 11:33:27

------
Analyzed: Vatious / Whole Lotta Led - Led Zeppelin Tribute
------

DR Peak RMS Duration Track
------
DR11 0.00 dB -13.85 dB 4:10 01-Selfish Gene / Whole Lotta Love
DR11 0.00 dB -15.20 dB 4:44 02-Chapter Eleven / Babe I'm Gonna Leave You
DR12 0.00 dB -15.33 dB 4:08 03-Kyle And Vee / Battle Of Evermore
DR11 0.00 dB -14.94 dB 7:12 04-Johnny Bic / Stairway To Heaven
DR13 0.00 dB -13.47 dB 3:00 05-Pain Killer / Friends
DR11 0.00 dB -11.93 dB 2:36 06-Paper Parrot / Immigrant Song
DR9 -4.09 dB -15.22 dB 1:55 07-Top Banana / Bron' Aur
DR11 0.00 dB -13.40 dB 4:47 08-Spike (Quireboys) / Heartbreaker
DR11 0.00 dB -12.42 dB 7:20 09-The Children / Kashmir
DR9 -2.92 dB -14.86 dB 5:37 10-Lydia Lunch / In My Time Of Dying
------

Number of tracks: 10
Official DR value: DR11

Samplerate: 44100 Hz
Channels: 2
Bits per sample: 16
Bitrate: 834 kbps
Codec: FLAC

[CUETools log; Date: 16.06.2015 11:33:50; Version: 2.1.4]
[CTDB TOCID: 3TVzi2OO3wy3HV.ha_s0rzkmmVw-] disk not present in database.
[AccurateRip ID: 00108ab3-0083ee4f-840aa80a] disk not present in database.

Track Peak [ CRC32 ] [W/O NULL] [ LOG ]
-- 99,9 [8195791A] [ACDB423C] W/O NULL
01 99,9 [95FE6C1E] [CAEBA710]
02 99,9 [44047D75] [31EC400B]
03 99,9 [976D888F] [95B741E7]
04 99,9 [496246F1] [51E049F7]
05 99,9 FFDEB1C [34694239]
06 99,9 [8162B7AD] [584FA66F]
07 62,4 [7E0F891B] [FD1843EE]
08 99,9 [6655105A] [6CA530A9]
09 99,9 [F47C150A] [525AA227]
10 71,4 [C4BE16A0] [3AF3D0B2]

http://i69.fastpic.ru/big/2015/0618/33/941e2ed45a770c3253c97311dd552b33.jpg

DOWNLOAD LINKS:
Buy Premium To Support Me & Get Resumable Support & Max Speed


Links are Interchangeable - No Password - Single Extraction

Jimmy Page / VA - Before The Balloon Went Up / Led Zeppelin Tribute - Whole Lotta Led (1998) Fast Download



 
 
 
Dear visitor, you went to the site as an unregistered user. We encourage you to register or enter the site under your name.
 
   
 
 (Votes #: 0)