2013Zone For Latest Downloads

 
     
 
Legal Downloads » Music » Echoes Of Incas - Cordilleras (1997)
Menu
Home Applications
Games Movies
Music TV Shows
Torrents Graphics

Sitemap

RSS
 
Advanced Search
Last News
Site Info
Top Contributors:
  1    supper88 32766
  2    admin 32671
  3    Whisky 10080
  4    Shark_ 8911
  5    creativelivenew 8706
  6    whathesupa 2799
  7    candymypost 840
  8    hvnteam 629
  9    vuong87 3


Articles:
  This Hour: 0
  Today: 0
  This Month: 58
  All Time: 515616


Torrents:
  Today: 0
  Yesterday: 0
  All Time: 156702


Membership:
  Registered Today :0
  This Hour:0
  This Month:0
  Total:14
  Banned:1

{online}
{inform_torrent}
Friend:
We Recomend
Trend
Trend
Ad1

Search In Site

Music : Echoes Of Incas - Cordilleras (1997)
 
http://i69.fastpic.ru/big/2015/0618/64/55d5f49bb0d22a8d9ff5e3ce020f1464.jpg

Echoes Of Incas - Cordilleras (1997)
EAC | Flac(Image) + Cue + Log & MP3 CBR 320Kbps
1998 | Holborn, PRCD 1338 | ~ 312 or 138 Mb | Scans Included
Ethnic Fusion / World Fusion / New Age

"Cordilleras means "mountain ranges," and this album was conceived as a celebration of the majestic mountain ranges that form the backbone of the American continent. The group -- with members from Mexico, Chile, Peru, Puerto Rico, and the U.S. -- Echoes of Incas plays Andes-inspired music combining native instruments (pan pipes, flutes, drums, and percussion) with Spanish guitars, keyboards, and nature sounds..."


Tracklist:

01. Celebration [4:14]
02. Pisac [4:55]
03. Turquoise Sea [4:05]
04. Mystic Path [4:21]
05. Gypsy Woman [4:56]
06. Magic Stone [4:40]
07. Forgotten Land [5:11]
08. Mountain Ranges [4:01]
09. Distant Places [4:03]
10. Golden Plains [3:46]
11. Young Flower [5:24]

Exact Audio Copy V1.0 beta 3 from 29. August 2011

EAC extraction logfile from 1. October 2013, 20:36

Cordilleras / Echoes Of Incas

Used drive : Optiarc DVD RW AD-5280S Adapter: 2 ID: 1

Read mode : Secure
Utilize accurate stream : Yes
Defeat audio cache : Yes
Make use of C2 pointers : No

Read offset correction

: 48
Overread into Lead-In and Lead-Out : No
Fill up missing offset samples with silence : Yes
Delete leading and trailing silent blocks : No
Null samples used in CRC calculations : Yes
Used interface
: Installed external ASPI interface

Used output format : Internal WAV Routines
Sample format : 44.100 Hz; 16 Bit; Stereo

TOC of the extracted CD Track | Start | Length | Start sector | End sector
1 | 0:00.00 | 4:14.28 | 0 | 19077 2 | 4:14.28 | 4:54.44 | 19078 | 41171 3 | 9:08.72 | 4:05.15 | 41172 | 59561 4 | 13:14.12 | 4:20.68 | 59562 | 79129 5 | 17:35.05 | 4:55.46 | 79130 | 101300 6 | 22:30.51 | 4:39.69 | 101301 | 122294 7 | 27:10.45 | 5:11.05 | 122295 | 145624 8 | 32:21.50 | 4:00.71 | 145625 | 163695 9 | 36:22.46 | 4:03.20 | 163696 | 181940
10 | 40:25.66 | 3:46.05 | 181941 | 198895
11 | 44:11.71 | 5:24.07 | 198896 | 223202

Range status and errors

Selected range Filename D:\Cordilleras - Echoes Of Incas.wav Peak level 97.7 %
Extraction speed 3.8 X
Range quality 99.9 %
Test CRC A821E245
Copy CRC A821E245
Copy OK

No errors occurred


AccurateRip summary

Track 1 cannot be verified as accurate (confidence 3) [75F8CB82], AccurateRip returned 95293A8 (AR v2)
Track 2 cannot be verified as accurate (confidence 3) AEFFED6, AccurateRip returned [270BDE3B] (AR v2)
Track 3 cannot be verified as accurate (confidence 3) [EE7428E5], AccurateRip returned [095F5F6B] (AR v2)
Track 4 cannot be verified as accurate (confidence 3) [0FDC4312], AccurateRip returned [57554B02] (AR v2)
Track 5 cannot be verified as accurate (confidence 3) [541C24DF], AccurateRip returned [D68CDCB5] (AR v2)
Track 6 cannot be verified as accurate (confidence 2) [16E90E2E], AccurateRip returned [C3123AE6] (AR v2)
Track 7 cannot be verified as accurate (confidence 2) [F67EEC12], AccurateRip returned [D1EA3404] (AR v2)
Track 8 cannot be verified as accurate (confidence 3) [22534A5E], AccurateRip returned [4F7AF5AC] (AR v2)
Track 9 cannot be verified as accurate (confidence 2) [F4E7900D], AccurateRip returned [0379BB47] (AR v2)
Track 10 cannot be verified as accurate (confidence 2) [6AC0872E], AccurateRip returned [9F51E654] (AR v2)
Track 11 cannot be verified as accurate (confidence 2) [2703B50F], AccurateRip returned [FBAB7F60] (AR v2)

No tracks could be verified as accurate
You may have a different pressing from the one(s) in the database

End of status report

==== Log checksum 3998F1324B73ADA9491489066F582E0035CD3602AC81BED134C2CAB5C4747739 ====

foobar2000 1.2.9 / Dynamic Range Meter 1.1.1
log date: 2015-06-15 20:17:50

------
Analyzed: Echoes Of Incas / Cordilleras
------

DR Peak RMS Duration Track
------
DR14 -0.20 dB -15.72 dB 4:14 01-Celebration
DR13 -0.20 dB -15.91 dB 4:55 02-Pisac
DR13 -0.20 dB -14.33 dB 4:05 03-Turquoise Sea
DR14 -0.20 dB -16.79 dB 4:21 04-Mystic Path
DR12 -0.20 dB -13.90 dB 4:56 05-Gypsy Woman
DR13 -0.20 dB -14.71 dB 4:40 06-Magic Stone
DR14 -0.20 dB -17.08 dB 5:11 07-Forgotten Land
DR14 -0.20 dB -16.43 dB 4:01 08-Mountain Ranges
DR12 -0.20 dB -13.30 dB 4:03 09-Distant Places
DR13 -0.20 dB -14.57 dB 3:46 10-Golden Plains
DR13 -0.20 dB -15.28 dB 5:24 11-Young Flower
------

Number of tracks: 11
Official DR value: DR13

Samplerate: 44100 Hz
Channels: 2
Bits per sample: 16
Bitrate: 796 kbps
Codec: FLAC

[CUETools log; Date: 15.06.2015 20:18:00; Version: 2.1.4]
[CTDB TOCID: xsfGnv3rKQajkufcMFSufbuOdS8-] found.
Track | CTDB Status
1 | (2/2) Accurately ripped
2 | (2/2) Accurately ripped
3 | (2/2) Accurately ripped
4 | (2/2) Accurately ripped
5 | (2/2) Accurately ripped
6 | (2/2) Accurately ripped
7 | (2/2) Accurately ripped
8 | (2/2) Accurately ripped
9 | (2/2) Accurately ripped
10 | (2/2) Accurately ripped
11 | (2/2) Accurately ripped
[AccurateRip ID: 0014625b-00b0bfb0-920ba00b] found.
Track [ CRC | V2 ] Status
01 5493723|75f8cb82 (0+0/9) No match
02 [2445bf37|baeffed6] (0+0/9) No match
03 [e04da6cf|ee7428e5] (0+0/9) No match
04 [ab80c240|0fdc4312] (0+0/9) No match
05 [d95d620d|541c24df] (0+0/9) No match
06 [64c0e4ae|16e90e2e] (0+0/8) No match
07 [c575897c|f67eec12] (0+0/8) No match
08 [a5035d49|22534a5e] (0+0/9) No match
09 [ed058687|f4e7900d] (0+0/8) No match
10 [ed150844|6ac0872e] (0+0/8) No match
11 [5538fe80|2703b50f] (0+0/8) No match
Offsetted by 667:
01 [37fcea41] (2/9) Accurately ripped
02 [0bae8f91] (2/9) Accurately ripped
03 [02d02341] (2/9) Accurately ripped
04 [0f2c8201] (2/9) Accurately ripped
05 [ff522d35] (2/9) Accurately ripped
06 [9071e15b] (2/8) Accurately ripped
07 [0d99a2d7] (2/8) Accurately ripped
08 [95c259c2] (2/9) Accurately ripped
09 [406bd40f] (2/8) Accurately ripped
10 [412c135a] (2/8) Accurately ripped
11 [18b36834] (2/8) Accurately ripped
Offsetted by 2184:
01 [6af26d3e] (2/9) Accurately ripped
02 [d8efb5d4] (2/9) Accurately ripped
03 0de6d7f (2/9) Accurately ripped
04 [d63a3a58] (2/9) Accurately ripped
05 [9e921dcd] (2/9) Accurately ripped
06 [c3123ae6] (2/8) Accurately ripped
07 [d1ea3404] (2/8) Accurately ripped
08 [7f5916a1] (2/9) Accurately ripped
09 [0379bb47] (2/8) Accurately ripped
10 [9f51e654] (2/8) Accurately ripped
11 [fbab7f60] (2/8) Accurately ripped

Track Peak [ CRC32 ] [W/O NULL] [ LOG ]
-- 97,7 [A821E245] [1459C839] CRC32
01 97,7 [25ACCFB6] [41B04551]
02 97,7 [36D55068] [6A341F45]
03 97,7 [C060BD5A] [401AE0B9]
04 97,7 [EF23A4B9] [50EBDAD0]
05 97,7 [3763734D] [C74AE033]
06 97,7 [208EE25A] [3FB3D488]
07 97,7 [CB9F19A0] [F679C740]
08 97,7 [2A7A81A2] D2E7EAA
09 97,7 [9C46BC1F] [3727AB01]
10 97,7 [10DA8D20] [F3EA81D9]
11 97,7 [80CD41E3] [D9103777]

http://i69.fastpic.ru/big/2015/0618/11/fe25b565c27442c7c2f0f12b4bd4b211.jpg

DOWNLOAD LINKS:
Buy Premium To Support Me & Get Resumable Support & Max Speed


Links are Interchangeable - No Password - Single Extraction



Ad2

 
 
 
Dear visitor, you went to the site as an unregistered user. We encourage you to register or enter the site under your name.
 
   
 
 (Votes #: 0)