2013Zone For Latest Downloads

 
     
 
Legal Downloads » Music » Brian Johnson & Geordie - Keep On Rocking! (1989)
Menu
Home Applications
Games Movies
Music TV Shows
Torrents Graphics

Sitemap

RSS
 
Advanced Search
Last News
Site Info
Top Contributors:
  1    supper88 32766
  2    admin 32711
  3    Whisky 10080
  4    Shark_ 8911
  5    creativelivenew 8706
  6    whathesupa 2799
  7    candymypost 840
  8    hvnteam 629
  9    vuong87 3


Articles:
  This Hour: 0
  Today: 0
  This Month: 0
  All Time: 515501


Torrents:
  Today: 0
  Yesterday: 0
  All Time: 156676


Membership:
  Registered Today :0
  This Hour:0
  This Month:0
  Total:14
  Banned:1

{online}
{inform_torrent}
Friend:
Full Download Scripts
Torrent Download
Trend
Trend

Search In Site

Music : Brian Johnson & Geordie - Keep On Rocking! (1989)
 
http://i70.fastpic.ru/big/2015/0618/53/cf2462da3cd3928012636968bd82c653.jpg

Brian Johnson & Geordie - Keep On Rocking! (1989)
EAC Rip | FLAC, IMG+CUE+LOG | 310 MB | MP3 CBR 320 Kbps | 110 MB | Complete HQ Scans | PNG -> 40 MB
Hard Rock/AOR | Label: Anchor #ANZ 700 | RAR 3% Rec. | Nitroflare.com
... Remastered compilation from pre-AC/DC Brian Johnson band ...

"All great songs from before the AC/DC years remastered and crisped up sounding fantastic. Brian's voice is amazing and every song a winner. Not all super heavy stuff like AC/DC (my favorite band) but fantastic."

Tracklist :

1. Keep On Rocking - 3:19
2. Can You Do It - 4:33
3. Black Cat - 4:17
4. Natural Born Loser - 3:39
5. (Ain't It) Just Like A Woman - 3:29
6. Strange Man - 4:29
7. Hope You Like It - 3:10
8. Mercenary Man - 4:59
9. Fire Queen - 3:32
10. Give You 'Till Monday - 3:11
11. Ten Feet Tall - 3:49
12. Going Down (St. James Infirmary) - 3:33

Exact Audio Copy V1.0 beta 3 from 29. August 2011

EAC extraction logfile from 12. June 2015, 9:53

Brian Johnson & Geordie / Keep On Rocking!

Used drive : ASUS DRW-24B3ST Adapter: 3 ID: 0

Read mode : Secure
Utilize accurate stream : Yes
Defeat audio cache : Yes
Make use of C2 pointers : No

Read offset correction

: 6
Overread into Lead-In and Lead-Out : No
Fill up missing offset samples with silence : Yes
Delete leading and trailing silent blocks : No
Null samples used in CRC calculations : Yes
Used interface
: Native Win32 interface for Win NT & 2000

Used output format : Internal WAV Routines
Sample format : 44.100 Hz; 16 Bit; Stereo

TOC of the extracted CD Track | Start | Length | Start sector | End sector
1 | 0:00.32 | 3:19.35 | 32 | 14991 2 | 3:19.67 | 4:32.65 | 14992 | 35456 3 | 7:52.57 | 4:17.08 | 35457 | 54739 4 | 12:09.65 | 3:39.17 | 54740 | 71181 5 | 15:49.07 | 3:29.33 | 71182 | 86889 6 | 19:18.40 | 4:29.27 | 86890 | 107091 7 | 23:47.67 | 3:09.50 | 107092 | 121316 8 | 26:57.42 | 4:59.23 | 121317 | 143764 9 | 31:56.65 | 3:31.52 | 143765 | 159641
10 | 35:28.42 | 3:10.65 | 159642 | 173956
11 | 38:39.32 | 3:49.25 | 173957 | 191156
12 | 42:28.57 | 3:33.08 | 191157 | 207139

Range status and errors

Selected range Filename D:\unclesandy\Brian Johnson & Geordie - Keep On Rocking!.wav Peak level 100.0 %
Extraction speed 5.4 X
Range quality 100.0 %
Test CRC B1000B61
Copy CRC B1000B61
Copy OK

No errors occurred


AccurateRip summary

Track 1 accurately ripped (confidence 3) [3944E0E3] (AR v2)
Track 2 accurately ripped (confidence 3) [0F5CDC54] (AR v2)
Track 3 accurately ripped (confidence 3) [F24B541B] (AR v2)
Track 4 accurately ripped (confidence 3) [0AB8A773] (AR v2)
Track 5 accurately ripped (confidence 3) [C3E71AA9] (AR v2)
Track 6 accurately ripped (confidence 3) [3D187C29] (AR v2)
Track 7 accurately ripped (confidence 3) [FD6A34BA] (AR v2)
Track 8 accurately ripped (confidence 3) [A89E7373] (AR v2)
Track 9 accurately ripped (confidence 3) [6E2AC1ED] (AR v2)
Track 10 accurately ripped (confidence 3) [8FB62D1F] (AR v2)
Track 11 accurately ripped (confidence 3) [7282BEB4] (AR v2)
Track 12 accurately ripped (confidence 3) [7ECB68E9] (AR v2)

All tracks accurately ripped

End of status report

---- CUETools DB Plugin V2.1.4

[CTDB TOCID: AXNuqo0pzux.kEtU0ySZbwhqpYw-] found
Submit result: AXNuqo0pzux.kEtU0ySZbwhqpYw- has been uploaded
Track | CTDB Status
1 | (1/1) Accurately ripped
2 | (1/1) Accurately ripped
3 | (1/1) Accurately ripped
4 | (1/1) Accurately ripped
5 | (1/1) Accurately ripped
6 | (1/1) Accurately ripped
7 | (1/1) Accurately ripped
8 | (1/1) Accurately ripped
9 | (1/1) Accurately ripped
10 | (0/1) No match
11 | (1/1) Accurately ripped
12 | (1/1) Accurately ripped

==== Log checksum 1A9F0451D975CB0A0A506348EDF07F9AD9D6EFCB3786FAC6C585D5BB05B27409 ====

Musicians include:
Vic Malcom, Tom Hill, Brian Gipson, Mickey Bennison, Hiam Romano, Dave Robson, Dek Rootham and David Whittiker

Produced by Ellis Elias
Recorded at Red Bus, Pye and Lansdowne Studios, London
Recording Engineers: Geoff CaIver, Gordon Milne and Richard Lengyel
Digitally Mixed by PNI Radford and Pete Yellowstone
Digitally Mastered by Steve Hoffman Red Bus Recording Studios, Limited, 34 Salisbury Street, London, England, N.W.8.
DOWNLOAD LINKS:
Buy Premium To Support Me & Get Resumable Support & Max Speed


Links are Interchangeable - No Password - Single Extraction

Brian Johnson & Geordie - Keep On Rocking! (1989) Fast Download



 
 
 
Dear visitor, you went to the site as an unregistered user. We encourage you to register or enter the site under your name.
 
   
 
 (Votes #: 0)