2013Zone For Latest Downloads

 
     
 
Legal Downloads » TV Shows » National Geographic - Weirdest Dinosaurs (2015)
Menu
Home Applications
Games Movies
Music TV Shows
Torrents Graphics

Sitemap

RSS
 
Advanced Search
Last News
Site Info
Top Contributors:
  1    supper88 32766
  2    admin 32693
  3    Whisky 10080
  4    Shark_ 8911
  5    creativelivenew 8706
  6    whathesupa 2799
  7    candymypost 840
  8    hvnteam 629
  9    vuong87 3


Articles:
  This Hour: 0
  Today: 0
  This Month: 10
  All Time: 515561


Torrents:
  Today: 0
  Yesterday: 0
  All Time: 156684


Membership:
  Registered Today :0
  This Hour:0
  This Month:0
  Total:14
  Banned:1

{online}
{inform_torrent}
Friend:
We Recomend
Trend
Trend
Ad1

Search In Site

TV Shows : National Geographic - Weirdest Dinosaurs (2015)
 

http://i72.fastpic.ru/big/2015/0617/d5/b2f65d9fda495357558b6558cc9806d5.jpg
National Geographic - Weirdest Dinosaurs (2015)
HDTV | 1020x576 | .MP4/AVC @ 3024 Kbps | 43mn 59s | Audio: English AAC 160 kbps, 2 channels | Subs: None | 1 003 MiB
Genre: Documentary

"While dinosaurs may have been some of the mightiest creatures ever to have walked the earth, they also could have been among the most bizarre. With extreme, exaggerated body parts, some predators were loaded with outlandish or disproportionately sized appendages. Join world-renowned paleontologists and travel the globe to unearth some of the lesser-known but most surprising members of the dinosaur family: Mamenchisaurus, whose neck alone was longer than the rest of its body; Chasmosaurus, adorned with a fashionable crown of frilly spikes to attract the eyes of potential suitors; Spinosaurus, with massive extensions from its vertebrae that could have supported a sail or a hump; and Parasaurolophus, whose tube-like head crest may look odd to us, but was a mating magnet back in the day. Why did these animals ever adopt such strange appendages? What was their purpose-and why did these evolutionary changes die out?"

General
Complete name : National.Geographic.Weirdest.Dinosaurs.mp4
Format
: MPEG-4
Format profile : Base Media
Codec ID
: isom
File size
: 1 003 MiB
Duration
: 43mn 59s
Overall bit rate mode : Variable
Overall bit rate : 3 189 Kbps

Video
ID : 1
Format
: AVC
Format/Info
: Advanced Video Codec
Format profile : [email protected]
Format settings, CABAC : Yes
Format settings, ReFrames : 1 frame
Format settings, GOP : M=1, N=12
Codec ID
: avc1
Codec ID/Info : Advanced Video Coding
Duration
: 43mn 59s
Bit rate
: 3 024 Kbps
Width
: 1 020 pixels
Height
: 576 pixels
Display aspect ratio : 16:9
Frame rate mode : Constant
Frame rate
: 25.000 fps
Color space
: YUV
Chroma subsampling

: 4:2:0
Bit depth
: 8 bits
Scan type
: Progressive
Bits/(Pixel*Frame)

: 0.206
Stream size
: 951 MiB (95%)
Encoded date : UTC 2015-06-12 13:49:52
Tagged date
: UTC 2015-06-12 13:49:52

Audio
ID : 2
Format
: AAC
Format/Info
: Advanced Audio Codec
Format profile : LC
Codec ID
: 40
Duration
: 43mn 59s
Bit rate mode : Variable
Bit rate
: 160 Kbps
Channel(s)
: 2 channels
Channel positions: Front: L R
Sampling rate : 48.0 KHz
Compression mode : Lossy
Stream size
: 50.3 MiB (5%)
Encoded date : UTC 2015-06-12 13:49:52
Tagged date
: UTC 2015-06-12 13:49:52

Screenshots:

http://i69.fastpic.ru/big/2015/0617/1e/6b8d2de0a6c1f730e80bdca489e5a91e.jpg

http://i70.fastpic.ru/big/2015/0617/86/d6b0fca06402beec944fccf34146fc86.jpg

http://i69.fastpic.ru/big/2015/0617/f2/41e1a39f001057c1ac828c334bdc7ff2.jpg

http://i71.fastpic.ru/big/2015/0617/bd/d60ce27e05b91fb5f09088cc1b32adbd.jpg


DOWNLOAD LINKS:
Buy Premium To Support Me & Get Resumable Support & Max Speed


Links are Interchangeable - No Password - Single Extraction

National Geographic - Weirdest Dinosaurs (2015) Fast Download


Ad2

 
 
 
Dear visitor, you went to the site as an unregistered user. We encourage you to register or enter the site under your name.
 
   
 
 (Votes #: 0)