2013Zone For Latest Downloads

 
     
 
Legal Downloads » Music » Gov't Mule - Dose (1998)
Menu
Home Applications
Games Movies
Music TV Shows
Torrents Graphics

Sitemap

RSS
 
Advanced Search
Last News
Site Info
Top Contributors:
  1    supper88 32766
  2    admin 32693
  3    Whisky 10080
  4    Shark_ 8911
  5    creativelivenew 8706
  6    whathesupa 2799
  7    candymypost 840
  8    hvnteam 629
  9    vuong87 3


Articles:
  This Hour: 0
  Today: 0
  This Month: 0
  All Time: 515561


Torrents:
  Today: 0
  Yesterday: 0
  All Time: 156684


Membership:
  Registered Today :0
  This Hour:0
  This Month:0
  Total:14
  Banned:1

{online}
{inform_torrent}
Friend:
We Recomend
Trend
Trend
Ad1

Search In Site

Music : Gov't Mule - Dose (1998)
 
http://i72.fastpic.ru/big/2015/0617/f0/765c9d1913f927cdc70148f28d9edef0.jpg

Gov't Mule - Dose (1998)
Rock | 1cd | EAC Rip | Ape + Cue + Log | covers
Evangeline GELM 4004 | rel: 1998 | 505Mb

Gov't Mule's sound is a throwback to the '70s heyday of Southern rock, and their style is peppered with references to the best of the Allmans, with a liberal dose of early ZZ Top thrown in for good measure. Their second album shows no signs of a sophomore slump, featuring playing and songwriting every bit as strong as their debut outing.
Warren Haynes' guitar work, if anything, is even more adventurous this time around, particularly effective on the opener "Blind Man in the Dark," "Thelonius Beck," and "Birth of the Mule." ~Allmusic

Track listing
01. Blind Man in the Dark (6:47)
02. Thorazine Shuffle (6:47)
03. Thelonius Beck (3:33)
04. Game Face (7:55)
05. Towering Fool (6:23)
06. Birth of the Mule (6:42)
07. John the Revelator (3:49)
08. She Said, She Said (6:57)
09. Larger Than Life (5:15)
10. Raven Black Night (5:30)
11. I Shall Return (5:42)
~ (65:20)

Personnel
- Warren Haynes - vocals, guitar, percussion
- Matt Abts - drums, percussion
- Allen Woody - bass, mandolin
- Michael Barbiero - production, tambourine on "John the Revelator"

Exact Audio Copy V0.99 prebeta 4 from 23. January 2008

EAC extraction logfile from 5. April 2009, 20:16

Gov't Mule / Dose

Used drive : HL-DT-STDVD-RAM GSA-H30N Adapter: 2 ID: 1

Read mode : Secure
Utilize accurate stream : Yes
Defeat audio cache : Yes
Make use of C2 pointers : No

Read offset correction

: 102
Overread into Lead-In and Lead-Out : No
Fill up missing offset samples with silence : Yes
Delete leading and trailing silent blocks : No
Null samples used in CRC calculations : Yes
Used interface
: Installed external ASPI interface

Used output format : Internal WAV Routines
Sample format : 44.100 Hz; 16 Bit; Stereo

TOC of the extracted CD Track | Start | Length | Start sector | End sector
1 | 0:00.00 | 6:47.27 | 0 | 30551 2 | 6:47.27 | 6:47.03 | 30552 | 61079 3 | 13:34.30 | 3:33.07 | 61080 | 77061 4 | 17:07.37 | 7:55.05 | 77062 | 112691 5 | 25:02.42 | 6:22.70 | 112692 | 141411 6 | 31:25.37 | 6:41.53 | 141412 | 171539 7 | 38:07.15 | 3:49.10 | 171540 | 188724 8 | 41:56.25 | 6:57.17 | 188725 | 220016 9 | 48:53.42 | 5:15.20 | 220017 | 243661
10 | 54:08.62 | 5:29.68 | 243662 | 268404
11 | 59:38.55 | 5:41.40 | 268405 | 294019

Range status and errors

Selected range Filename F:\Gov't Mule - Dose.wav Peak level 98.8 %
Range quality 100.0 %
Copy CRC 6DAE242A
Copy OK

No errors occurred

End of status report

[CUETools log; Date: 2015.06.09. 12:13:41; Version: 2.1.5]
[CTDB TOCID: DFMC7PN6vX6jKzHq8EycZBLy8Fw-] found.
Track | CTDB Status
1 | (25/25) Accurately ripped
2 | (25/25) Accurately ripped
3 | (25/25) Accurately ripped
4 | (25/25) Accurately ripped
5 | (25/25) Accurately ripped
6 | (25/25) Accurately ripped
7 | (25/25) Accurately ripped
8 | (24/25) Accurately ripped
9 | (25/25) Accurately ripped
10 | (25/25) Accurately ripped
11 | (25/25) Accurately ripped
[AccurateRip ID: 001b9b0f-00ed9e5d-9e0f500b] found.
Track [ CRC | V2 ] Status
01 [08973800|932a20f3] (05+06/49) Accurately ripped
02 [e643594c|2b4f3811] (05+06/49) Accurately ripped
03 [90b2cf7b|7932c783] (05+06/49) Accurately ripped
04 [78abce83|b148f200] (05+06/49) Accurately ripped
05 [af97e60a|c1d5616d] (05+06/49) Accurately ripped
06 [0c36d01a|2e6bc218] (05+06/49) Accurately ripped
07 [96b8a83a|5a3d5156] (05+06/49) Accurately ripped
08 7d0eb18|ace87ef1 (05+06/50) Accurately ripped
09 [84d28a1d|232ee83d] (05+06/49) Accurately ripped
10 [ab4d4e73|8894dc3c] (05+05/48) Accurately ripped
11 [8f892fbe|8bc67d2b] (05+05/48) Accurately ripped
Offsetted by 687:
01 a33a115 (04/49) Accurately ripped
02 [21afbede] (04/49) Accurately ripped
03 [351373a5] (04/49) Accurately ripped
04 [1d6b6929] (04/49) Accurately ripped
05 [21345464] (04/49) Accurately ripped
06 [39855a5e] (04/49) Accurately ripped
07 [090cc607] (04/49) Accurately ripped
08 [5fcbc2ce] (04/50) Accurately ripped
09 [41c66c41] (04/49) Accurately ripped
10 [8d3728dd] (04/48) Accurately ripped
11 [771083d9] (04/48) Accurately ripped
Offsetted by 717:
01 5ffdb58 (09/49) Accurately ripped
02 7d84082 (09/49) Accurately ripped
03 [e695ee28] (09/49) Accurately ripped
04 180ca12 (09/49) Accurately ripped
05 [74143354] (09/49) Accurately ripped
06 [3cf50844] (09/49) Accurately ripped
07 [29d8ce03] (09/49) Accurately ripped
08 [a26155ba] (09/50) Accurately ripped
09 [47ca5d89] (09/49) Accurately ripped
10 [47b5a231] (09/48) Accurately ripped
11 [48296dcf] (09/48) Accurately ripped
Offsetted by 81:
01 [8c75eb5d] (00/49) No match (V2 was not tested)
02 [e2171dba] (00/49) No match (V2 was not tested)
03 [cceba0df] (00/49) No match (V2 was not tested)
04 [db1762bb] (00/49) No match (V2 was not tested)
05 [7987c47c] (00/49) No match (V2 was not tested)
06 [aec68bb6] (00/49) No match (V2 was not tested)
07 [6f96f14d] (00/49) No match (V2 was not tested)
08 [85319162] (00/50) No match (V2 was not tested)
09 [2ea9fbf9] (00/49) No match (V2 was not tested)
10 [3c6f9609] (00/48) No match (V2 was not tested)
11 [5db2daa3] (00/48) No match (V2 was not tested)
Offsetted by 664:
01 [2dae91d3] (00/49) No match (V2 was not tested)
02 [7b5d7d9c] (00/49) No match (V2 was not tested)
03 [a98500b6] (00/49) No match (V2 was not tested)
04 [e604d1a8] (00/49) No match (V2 was not tested)
05 [d0d2b68a] (00/49) No match (V2 was not tested)
06 [14c0cc83] (00/49) No match (V2 was not tested)
07 [6fe7d0f9] (00/49) No match (V2 was not tested)
08 [dff2b008] (00/50) No match (V2 was not tested)
09 [1b07aabd] (00/49) No match (V2 was not tested)
10 [dc1a7683] (00/48) No match (V2 was not tested)
11 49f8c36 (00/48) No match (V2 was not tested)
Offsetted by 711:
01 [87c95c16] (00/49) No match (V2 was not tested)
02 [3369c02e] (00/49) No match (V2 was not tested)
03 [215179f5] (00/49) No match (V2 was not tested)
04 [62e0744e] (00/49) No match (V2 was not tested)
05 [97a06e0f] (00/49) No match (V2 was not tested)
06 [a2ab7f16] (00/49) No match (V2 was not tested)
07 [23499937] (00/49) No match (V2 was not tested)
08 [fb769ebe] (00/50) No match (V2 was not tested)
09 [acfcc6e1] (00/49) No match (V2 was not tested)
10 [88cf89ed] (00/48) No match (V2 was not tested)
11 [84be0bd1] (00/48) No match (V2 was not tested)
Offsetted by 723:
01 [de9df2b0] (00/49) No match (V2 was not tested)
02 [3c46c0d6] (00/49) No match (V2 was not tested)
03 [ae529082] (00/49) No match (V2 was not tested)
04 12a295d (00/49) No match (V2 was not tested)
05 [501bf7db] (00/49) No match (V2 was not tested)
06 [d73e9172] (00/49) No match (V2 was not tested)
07 [306802cf] (00/49) No match (V2 was not tested)
08 [494c0cb6] (00/50) No match (V2 was not tested)
09 [e297f431] (00/49) No match (V2 was not tested)
10 [069bba75] (00/48) No match (V2 was not tested)
11 [0b94cfcd] (00/48) No match (V2 was not tested)

Track Peak [ CRC32 ] [W/O NULL] [ LOG ]
-- 98,8 [6DAE242A] [C4DBC4ED] CRC32
01 98,8 [6641C5FB] [3BA995D8]
02 98,8 [10623104] [E1FB8854]
03 98,8 [CF86EF1F] [96367A0C]
04 98,8 [9BEF1140] 79BE0A2
05 98,8 [1D357A72] [E4419648]
06 98,8 [5ED260B8] [F54A839A]
07 98,8 [EEF9941D] [30D39203]
08 98,8 [3483C6B3] [263C4235]
09 98,8 [763D2638] [3D46A677]
10 98,8 B8E29CC [8C8E9DBC]
11 98,8 [05FE8631] [7BDBFA95]
DOWNLOAD LINKS:
Buy Premium To Support Me & Get Resumable Support & Max Speed


Links are Interchangeable - No Password - Single Extraction

Gov't Mule - Dose (1998) Fast Download


Ad2

 
 
 
Dear visitor, you went to the site as an unregistered user. We encourage you to register or enter the site under your name.
 
   
 
 (Votes #: 0)